Главная Торренты Топ Раздач Форум Правила Чат XXX

Привет, гость

Логин:

Пароль:



Регистрация Восстановление пароля


Loading...

 Торренты

:: Детали релиза
Скачать
Скачать mexanick.torrent
Название
Скачать
Мультитрекерная раздача

Золотой торрент Механик / The Mechanic (2011) BDRip 720p

ТипБоевик
Хэш релизаf21e03bb9e3ffb5aa16e5fc204e34a5ab840fe1c
Проверено
Этот торрент проверен Администрацией.
Изображение для Механик / The Mechanic (2011) BDRip 720p (кликните для просмотра полного изображения)
Скриншоты, кадры (Посмотреть)
Изображение для Механик / The Mechanic (2011) BDRip 720p (кликните для просмотра полного изображения)
Изображение для Механик / The Mechanic (2011) BDRip 720p (кликните для просмотра полного изображения)
Изображение для Механик / The Mechanic (2011) BDRip 720p (кликните для просмотра полного изображения)
Изображение для Механик / The Mechanic (2011) BDRip 720p (кликните для просмотра полного изображения)
Оригинальное название: The Mechanic
Русское название: Механик
Жанр: Боевик, триллер, драма
Год выхода: 2011
Выпущено: США, Millennium Films / Nu Image Entertainment GmbH
Режиссер: Саймон Уэст
В ролях: Джейсон Стэтхэм, Бен Фостер, Тони Голдуин, Дональд Сазерленд, Джефф Чейз, Мини Анден, Джеймс Логан, Эдди Дж. Фернандез, Джошуа Бриджуотер, Джон МакКоннелл

Описание: Артур Бишоп — «Механик», высокопрофессиональный безукоризненный киллер, который всегда работает по правилам — «чисто» и без следов. Такая работа требует полного самообладания и беспристрастности, и в своём деле ему нет равных. Бишоп всегда работал один, но ему пришлось стать наставником молодого и отчаянного Стива. Методичный профессионал и импульсивный ученик теперь на пару «устраняют проблемы», но рано или поздно они сойдутся в смертельной схватке…

релиз на Blu-Ray 4 марта 2011
релиз на DVD 25 февраля 2011

image

MediaInfo

General
Complete name : C:\Users\Socialmind\Desktop\The Mechanic 720p.Socialmind's.mix.eng.tus.dub.mkv
Format : Matroska
File size : 5.12 GiB
Duration : 1h 28mn
Overall bit rate : 8 284 Kbps
Encoded date : UTC 2011-02-23 01:24:38
Writing application : mkvmerge v2.3.0 ('Freak U') built on Sep 8 2008 18:32:16
Writing library : libebml v0.7.7 + libmatroska v0.8.1

Video
ID : 1
Format : MPEG-4 Visual
Format profile : Advanced [email protected]
Format settings, BVOP : Yes
Format settings, QPel : No
Format settings, GMC : No warppoints
Format settings, Matrix : Default (MPEG)
Codec ID : XVID
Codec ID/Hint : XviD
Duration : 1h 28mn
Bit rate : 7 543 Kbps
Width : 1 280 pixels
Height : 544 pixels
Display aspect ratio : 2.35:1
Frame rate : 25.000 fps
Color space : YUV
Chroma subsampling : 4:2:0
Bit depth : 8 bits
Scan type : Progressive
Bits/(Pixel*Frame) : 0.433
Stream size : 4.66 GiB (91%)
Writing library : XviD 61

Audio #1
ID : 2
Format : MPEG Audio
Format version : Version 1
Format profile : Layer 3
Codec ID : A_MPEG/L3
Codec ID/Hint : MP3
Duration : 1h 28mn
Bit rate mode : Constant
Bit rate : 192 Kbps
Channel(s) : 2 channels
Sampling rate : 44.1 KHz
Stream size : 122 MiB (2%)
Language : English

Audio #2
ID : 3
Format : AC-3
Format/Info : Audio Coding 3
Mode extension : CM (complete main)
Codec ID : A_AC3
Duration : 1h 28mn
Bit rate mode : Constant
Bit rate : 384 Kbps
Channel(s) : 6 channels
Channel positions : Front: L C R, Side: L R, LFE
Sampling rate : 48.0 KHz
Bit depth : 16 bits
Stream size : 243 MiB (5%)
Language : Russian

Качество:
BDRip 720p
Видео: MKV, 1280x544, 16:9, 25.000 fps, 7 543 Kbps
Аудио #1: Русский: AC3, 6 ch, 48.0 KHz, 384 kbts, 16bit
Аудио #2: Английский: mp3, 2 ch, 44.1 KHz, 192kbts
Продолжительность: 01:28:31
Перевод: Дублированный
РаздающийПоследний раз был здесь 7 лет 4 месяца 1 неделю 3 дня 1 час 8 минут 18 секунд  назад
Размер5.12 GB (5,499,713,088 байт)
Добавлен23 февраля 2011 в 04:34:36
Проголосуй за трекер

<< Предыдущий релиз  [из этой категории]   |   [из этой категории]  Следующий релиз >>
Все релизы   |   Все релизы этой категории
:: Список комментариев
Страницы:  1 
:: Не в сети Serg_V :: Опытный пользователь :: upload 10.49 TB :: download 128.00 kB :: 87,979,071.39 :: Оценить комментарий:
Дождался в нормальном качестве, спасибо.
Комментарий добавлен: 23 февраля 2011 в 16:06:40

:: Не в сети TYSON_30 :: Опытный пользователь :: upload 5.53 TB :: download 1.78 GB :: 3,182.23 :: Оценить комментарий:
СПАСИБО ОГРОМНОЕ
Комментарий добавлен: 23 февраля 2011 в 16:37:02

:: Не в сети swml :: Опытный пользователь :: upload 44.18 GB :: download 0.00 kB :: Inf. :: Оценить комментарий:
а почему у него изображение как на двд?)
Комментарий добавлен: 24 февраля 2011 в 16:41:59

:: Не в сети mutya :: Опытный пользователь :: upload 224.55 GB :: download 18.50 MB :: 12,429.13 :: Оценить комментарий:
Потому, что это не BDRip, а DVDRip. Причем рипальщик - полный дегенерат!
Не качайте! Это говно!
Комментарий добавлен: 3 марта 2011 в 09:23:04

:: Не в сети swml :: Опытный пользователь :: upload 44.18 GB :: download 0.00 kB :: Inf. :: Оценить комментарий:
вот редиска,бан ему
Комментарий добавлен: 8 марта 2011 в 08:56:28

Всего 5 на 1 страницах по 10 на каждой странице.

Страницы:  1 
Наши друзья

Loading...


Обратная связь: [email protected]
© 2020 BigFANGroup 4.1. Powered by Kinokpk.com releaser 2.70 © 2008-2020.
Торрент трекер, форум трекера, скачать бесплатно фильмы, игры, видео, картинки и многое другое.