Главная Торренты Топ Раздач Форум Правила Чат XXX

Привет, гость

Логин:

Пароль:



Регистрация Восстановление пароля


Наши друзья

 Торренты

:: Детали релиза
Скачать
Скачать 21MostBDRip720p.mkv.torrent
Название
Скачать
Мультитрекерная раздача

Золотой торрент 21 мост / 21 Bridges (2019) BDRip 720p | Лицензия

ТипБоевик
Хэш релиза48fbbd01675fa699e141b9143291c210ab0bdf36
Проверено
Этот торрент проверен Администрацией.
Изображение для 21 мост / 21 Bridges (2019) BDRip 720p | Лицензия (кликните для просмотра полного изображения)
Скриншоты, кадры (Посмотреть)
Изображение для 21 мост / 21 Bridges (2019) BDRip 720p | Лицензия (кликните для просмотра полного изображения)
Изображение для 21 мост / 21 Bridges (2019) BDRip 720p | Лицензия (кликните для просмотра полного изображения)
Изображение для 21 мост / 21 Bridges (2019) BDRip 720p | Лицензия (кликните для просмотра полного изображения)
Изображение для 21 мост / 21 Bridges (2019) BDRip 720p | Лицензия (кликните для просмотра полного изображения)
Информация о фильме
Название: 21 мост
Оригинальное название: 21 Bridges
Год выхода: 2019
Жанр: Боевик, криминал, триллер
Режиссер: Брайан Кирк
В ролях: Чедвик Боузман, Сиенна Миллер, Тейлор Китч, Дж.К. Симмонс, Стефан Джеймс, Кит Дэвид, Александр Сиддиг, Луис Канселми, Виктория Картахена, Гари Карр

О фильме: Потомственный полицейский Андре Дэвис с самыми высокими показателями раскрываемости преступлений находится под внутренним расследованием, но, тем не менее, его привлекают к поимке двух опасных преступников. Те совершили дерзкое ограбление на Манхэттене и, оставив после себя 7 мёртвых полицейских, пустились в бега. У Дэвиса есть только одна ночь, чтобы поймать убийц, и первым делом он распоряжается перекрыть все выходы с Манхэттена, в том числе 21 мост.

image

Выпущено: Китай, США / Huayi Brothers, MWM Studios
Продолжительность: 01:39:57
Перевод: Дублированный | Лицензия BD RUS

Файл
Формат: MKV
Качество: BDRip 720p
Видео: H.264, 1280x536, 6020 kbps, 23,976 fps
Звук#1: Русский, AC3, 5.1 ch, 48 kHz, 640 kbps | Лицензия
Звук#2: Украиский, AC3, 5.1 ch, 48 kHz, 448 kbps | Дубляж
Звук#3: Английский, AC3, 5.1 ch, 48 kHz, 448 kbps | оригинал
Субтитры: Русские (полные), английские (полные, SDH)

MediaInfo
Формат : Matroska
Версия формата : Version 4
Размер файла : 5,28 Гбайт
Продолжительность : 1 ч. 39 м.
Общий поток : 7 559 Кбит/сек
Дата кодирования : UTC 2022-01-12 23:27:09
Программа кодирования : mkvmerge v9.5.0 ('Quiet Fire') 64bit
Библиотека кодирования : libebml v1.3.4 + libmatroska v1.4.5

Видео
Идентификатор : 1
Формат : AVC
Формат/Информация : Advanced Video Codec
Профиль формата : [email protected]
Настройки формата : CABAC / 12 Ref Frames
Параметр CABAC формата : Да
Параметр RefFrames формата : 12 кадров
Идентификатор кодека : V_MPEG4/ISO/AVC
Продолжительность : 1 ч. 39 м.
Битрейт : 6 020 Кбит/сек
Ширина : 1 280 пикселей
Высота : 536 пикселей
Соотношение сторон : 2,40:1
Режим частоты кадров : Постоянный
Частота кадров : 23,976 (23976/1000) кадра/сек
Цветовое пространство : YUV
Субдискретизация насыщенности : 4:2:0
Битовая глубина : 8 бит
Тип развёртки : Прогрессивная
Бит/(Пиксели*Кадры) : 0.366
Размер потока : 4,20 Гбайт (80%)
Заголовок : Sisendrovich(R)
Библиотека кодирования : x264 core 164 r3079 d9a19f0
Настройки программы : cabac=1 / ref=12 / deblock=1:-1:-1 / analyse=0x3:0x133 / me=tesa / subme=11 / psy=1 / psy_rd=1.00:0.00 / mixed_ref=1 / me_range=32 / chroma_me=1 / trellis=2 / 8x8dct=1 / cqm=0 / deadzone=21,11 / fast_pskip=0 / chroma_qp_offset=-2 / threads=8 / lookahead_threads=2 / sliced_threads=0 / nr=0 / decimate=0 / interlaced=0 / bluray_compat=0 / constrained_intra=0 / bframes=14 / b_pyramid=2 / b_adapt=2 / b_bias=0 / direct=3 / weightb=1 / open_gop=0 / weightp=2 / keyint=240 / keyint_min=23 / scenecut=40 / intra_refresh=0 / rc_lookahead=60 / rc=2pass / mbtree=0 / bitrate=6020 / ratetol=1.0 / qcomp=0.70 / qpmin=0 / qpmax=69 / qpstep=4 / cplxblur=20.0 / qblur=0.5 / vbv_maxrate=50000 / vbv_bufsize=62500 / nal_hrd=none / filler=0 / ip_ratio=1.40 / pb_ratio=1.30 / aq=3:0.80
Язык : English
Default : Да
Forced : Нет
Цветовой диапазон : Limited
Основные цвета : BT.709
Характеристики трансфера : BT.709
Коэффициенты матрицы : BT.709

Аудио #1
Идентификатор : 2
Формат : AC-3
Формат/Информация : Audio Coding 3
Коммерческое название : Dolby Digital
Идентификатор кодека : A_AC3
Продолжительность : 1 ч. 39 м.
Вид битрейта : Постоянный
Битрейт : 640 Кбит/сек
Каналы : 6 каналов
Channel layout : L R C LFE Ls Rs
Частота : 48,0 КГц
Частота кадров : 31,250 кадров/сек (1536 SPF)
Метод сжатия : С потерями
Размер потока : 458 Мбайт (8%)
Заголовок : rus
Язык : Russian
Default : Да
Forced : Нет

Аудио #2
Идентификатор : 3
Формат : AC-3
Формат/Информация : Audio Coding 3
Коммерческое название : Dolby Digital
Идентификатор кодека : A_AC3
Продолжительность : 1 ч. 39 м.
Вид битрейта : Постоянный
Битрейт : 448 Кбит/сек
Каналы : 6 каналов
Channel layout : L R C LFE Ls Rs
Частота : 48,0 КГц
Частота кадров : 31,250 кадров/сек (1536 SPF)
Метод сжатия : С потерями
Размер потока : 320 Мбайт (6%)
Заголовок : ukr
Язык : Ukrainian
Default : Нет
Forced : Нет

Аудио #3
Идентификатор : 4
Формат : AC-3
Формат/Информация : Audio Coding 3
Коммерческое название : Dolby Digital
Идентификатор кодека : A_AC3
Продолжительность : 1 ч. 39 м.
Вид битрейта : Постоянный
Битрейт : 448 Кбит/сек
Каналы : 6 каналов
Channel layout : L R C LFE Ls Rs
Частота : 48,0 КГц
Частота кадров : 31,250 кадров/сек (1536 SPF)
Метод сжатия : С потерями
Размер потока : 320 Мбайт (6%)
Заголовок : eng
Язык : English
Default : Нет
Forced : Нет

Текст #1
Идентификатор : 5
Формат : UTF-8
Идентификатор кодека : S_TEXT/UTF8
Идентификатор кодека/Информация : UTF-8 Plain Text
Продолжительность : 1 ч. 30 м.
Битрейт : 85 бит/сек
Count of elements : 982
Размер потока : 56,4 Кбайт (0%)
Заголовок : rusFull
Язык : Russian
Default : Нет
Forced : Нет

Текст #2
Идентификатор : 6
Формат : UTF-8
Идентификатор кодека : S_TEXT/UTF8
Идентификатор кодека/Информация : UTF-8 Plain Text
Продолжительность : 1 ч. 29 м.
Битрейт : 52 бит/сек
Count of elements : 1116
Размер потока : 34,5 Кбайт (0%)
Заголовок : engFull
Язык : English
Default : Нет
Forced : Нет

Текст #3
Идентификатор : 7
Формат : UTF-8
Идентификатор кодека : S_TEXT/UTF8
Идентификатор кодека/Информация : UTF-8 Plain Text
Продолжительность : 1 ч. 30 м.
Битрейт : 56 бит/сек
Count of elements : 1249
Размер потока : 37,6 Кбайт (0%)
Заголовок : engSDH
Язык : English
Default : Нет
Forced : Нет

Меню
00:00:00.000 : :Chapter 01
00:03:16.196 : :Chapter 02
00:07:48.510 : :Chapter 03
00:11:59.344 : :Chapter 04
00:16:54.722 : :Chapter 05
00:22:33.143 : :Chapter 06
00:30:54.561 : :Chapter 07
00:34:50.046 : :Chapter 08
00:40:16.414 : :Chapter 09
00:44:39.719 : :Chapter 10
00:50:54.718 : :Chapter 11
00:54:04.408 : :Chapter 12
00:58:52.320 : :Chapter 13
01:02:08.600 : :Chapter 14
01:06:19.601 : :Chapter 15
01:10:27.557 : :Chapter 16
01:16:19.617 : :Chapter 17
01:19:19.755 : :Chapter 18
01:25:15.110 : :Chapter 19
01:32:34.382 : :Chapter 20
РаздающийПоследний раз был здесь 1 неделю 4 дня 4 часа 7 минут 44 секунды  назад
Размер5.28 GB (5,666,769,383 байт)
Добавлен13 января 2022 в 15:37:33
Проголосуй за трекер

<< Предыдущий релиз  [из этой категории]   |   [из этой категории]  Следующий релиз >>
Все релизы   |   Все релизы этой категории
:: Список комментариев http://bigfangroup.org
Комментариев нет. Желаете добавить?


Обратная связь: [email protected]
© 2022 BigFANGroup 4.1. Powered by Kinokpk.com releaser 2.70 © 2008-2022.
Торрент трекер, форум трекера, скачать бесплатно фильмы, игры, видео, картинки и многое другое.