Главная Торренты Топ Раздач Форум Правила Чат XXX

Привет, гость

Логин:

Пароль:



Регистрация Восстановление пароля


Наши друзья

 Торренты

:: Детали релиза
Скачать
Скачать Asakusa_Kid_2021_WEB-DL_1080p.torrent
Название
Скачать
Мультитрекерная раздача

Золотой торрент Парень из Асакусы / Asakusa Kid (2021) WEB-DL 1080p | Смирнов

ТипБиография
Хэш релизаc77145d096e1d486acaa863f832b86a2b160cee3
Проверено
Этот торрент проверен Администрацией.
Изображение для Парень из Асакусы / Asakusa Kid (2021) WEB-DL 1080p | Смирнов (кликните для просмотра полного изображения)
Скриншоты, кадры (Посмотреть)
Изображение для Парень из Асакусы / Asakusa Kid (2021) WEB-DL 1080p | Смирнов (кликните для просмотра полного изображения)
Изображение для Парень из Асакусы / Asakusa Kid (2021) WEB-DL 1080p | Смирнов (кликните для просмотра полного изображения)
Изображение для Парень из Асакусы / Asakusa Kid (2021) WEB-DL 1080p | Смирнов (кликните для просмотра полного изображения)
Изображение для Парень из Асакусы / Asakusa Kid (2021) WEB-DL 1080p | Смирнов (кликните для просмотра полного изображения)
Информация о фильме
Название: Парень из Асакусы
Оригинальное название: Asakusa Kid
Год выпуска: 2021
Жанр: Биография, драма
Режиссер: Хитори Гэкидан
В ролях: Кейко Аджена, Федор Чин, Николь Фонг, Муги Кадоваки, Морио Казама, Кензо Ли, Хироюки Оноуэ, Хонами Судзуки, Нобуюки Цутия, Харрисон Сюй, Юя Ягира, Чейз Йи, Ё Оидзуми

О фильме: 1965 год. Такеши Китано бросает университет и начинает играть в театре, где становится учеником знаменитого артиста Сэндзабуро Фуками. Парень оттачивает актерские навыки день и ночь, следуя совету мастера всегда оставаться в образе, но с ростом популярности телевидения посещаемость театра начинает падать.

image

Выпущено: Япония
Продолжительность: 02:03:18
Перевод: Авторский одноголосый | А. Смирнов (Ненорматив)

Файл
Фрмат: MKV
Качество: WEB-DL 1080p
Видео: MPEG-4 AVC, 3715 Кбит/с, 1920x1080
Аудио #1: AC3, 6 ch, 384 Кбит/с | RUS
Аудио #2: E-AC3, 6 ch, 640 Кбит/с | ENG
Субтитры: Русские, английские, украинские

MediaInfo
Формат : Matroska
Версия формата : Version 4
Размер файла : 4,08 Гбайт
Продолжительность : 2 ч. 3 м.
Режим общего битрейта : Переменный
Общий поток : 4 741 Кбит/сек
Название фильма : Asakusa.Kid.2021.1080p_от New-Team
Дата кодирования : UTC 2022-01-13 18:14:39
Программа кодирования : mkvmerge v59.0.0 ('Shining Star') 64-bit
Библиотека кодирования : libebml v1.4.2 + libmatroska v1.6.4

Видео
Идентификатор : 1
Формат : AVC
Формат/Информация : Advanced Video Codec
Профиль формата : [email protected]
Настройки формата : CABAC / 4 Ref Frames
Параметр CABAC формата : Да
Параметр RefFrames формата : 4 кадра
Идентификатор кодека : V_MPEG4/ISO/AVC
Продолжительность : 2 ч. 3 м.
Вид битрейта : Переменный
Битрейт : 3 715 Кбит/сек
Максимальный битрейт : 20,0 Мбит/сек
Ширина : 1 920 пикселей
Высота : 1 080 пикселей
Соотношение сторон : 16:9
Режим частоты кадров : Постоянный
Частота кадров : 24,000 кадра/сек
Цветовое пространство : YUV
Субдискретизация насыщенности : 4:2:0
Битовая глубина : 8 бит
Тип развёртки : Прогрессивная
Бит/(Пиксели*Кадры) : 0.075
Размер потока : 3,20 Гбайт (78%)
Библиотека кодирования : x264 core 148 r2727 7d026e8
Настройки программы : cabac=1 / ref=4 / deblock=1:0:0 / analyse=0x3:0x111 / me=umh / subme=10 / psy=1 / psy_rd=1.00:0.00 / mixed_ref=1 / me_range=120 / chroma_me=1 / trellis=2 / 8x8dct=1 / cqm=0 / deadzone=21,11 / fast_pskip=1 / chroma_qp_offset=-2 / threads=8 / lookahead_threads=2 / sliced_threads=0 / nr=0 / decimate=1 / interlaced=0 / bluray_compat=0 / stitchable=1 / constrained_intra=0 / bframes=16 / b_pyramid=2 / b_adapt=2 / b_bias=0 / direct=3 / weightb=1 / open_gop=0 / weightp=2 / keyint=240 / keyint_min=121 / scenecut=0 / intra_refresh=0 / rc_lookahead=240 / rc=crf / mbtree=1 / crf=16.0 / qcomp=0.50 / qpmin=6 / qpmax=51 / qpstep=4 / vbv_maxrate=20000 / vbv_bufsize=25000 / crf_max=0.0 / nal_hrd=vbr / filler=0 / ip_ratio=1.40 / aq=1:0.80
Default : Да
Forced : Нет

Аудио #1
Идентификатор : 2
Формат : AC-3
Формат/Информация : Audio Coding 3
Коммерческое название : Dolby Digital
Идентификатор кодека : A_AC3
Продолжительность : 2 ч. 3 м.
Вид битрейта : Постоянный
Битрейт : 384 Кбит/сек
Каналы : 6 каналов
Channel layout : L R C LFE Ls Rs
Частота : 48,0 КГц
Частота кадров : 31,250 кадров/сек (1536 SPF)
Метод сжатия : С потерями
Размер потока : 339 Мбайт (8%)
Заголовок : [AVO] А. Смирнов
Язык : Russian
Service kind : Complete Main
Default : Да
Forced : Нет

Аудио #2
Идентификатор : 3
Формат : E-AC-3
Формат/Информация : Enhanced AC-3
Коммерческое название : Dolby Digital Plus
Идентификатор кодека : A_EAC3
Продолжительность : 2 ч. 3 м.
Вид битрейта : Постоянный
Битрейт : 640 Кбит/сек
Каналы : 6 каналов
Channel layout : L R C LFE Ls Rs
Частота : 48,0 КГц
Частота кадров : 31,250 кадров/сек (1536 SPF)
Метод сжатия : С потерями
Размер потока : 564 Мбайт (13%)
Язык : English
Service kind : Complete Main
Default : Нет
Forced : Нет

Текст #1
Идентификатор : 4
Формат : UTF-8
Идентификатор кодека : S_TEXT/UTF8
Идентификатор кодека/Информация : UTF-8 Plain Text
Продолжительность : 2 ч. 2 м.
Битрейт : 77 бит/сек
Count of elements : 1431
Размер потока : 69,7 Кбайт (0%)
Язык : Russian
Default : Нет
Forced : Нет

Текст #2
Идентификатор : 5
Формат : UTF-8
Идентификатор кодека : S_TEXT/UTF8
Идентификатор кодека/Информация : UTF-8 Plain Text
Продолжительность : 2 ч. 2 м.
Битрейт : 48 бит/сек
Count of elements : 1429
Размер потока : 43,3 Кбайт (0%)
Язык : English
Default : Нет
Forced : Нет

Текст #3
Идентификатор : 6
Формат : UTF-8
Идентификатор кодека : S_TEXT/UTF8
Идентификатор кодека/Информация : UTF-8 Plain Text
Продолжительность : 2 ч. 2 м.
Битрейт : 72 бит/сек
Count of elements : 1431
Размер потока : 65,1 Кбайт (0%)
Язык : Ukrainian
Default : Нет
Forced : Нет
РаздающийПоследний раз был здесь 1 неделю 4 дня 1 час 30 минут 49 секунд  назад
Размер4.08 GB (4,385,024,659 байт)
Добавлен13 января 2022 в 20:48:16
Проголосуй за трекер

<< Предыдущий релиз  [из этой категории]   |   [из этой категории]  Следующий релиз >>
Все релизы   |   Все релизы этой категории
:: Список комментариев http://bigfangroup.org
Комментариев нет. Желаете добавить?


Обратная связь: [email protected]
© 2022 BigFANGroup 4.1. Powered by Kinokpk.com releaser 2.70 © 2008-2022.
Торрент трекер, форум трекера, скачать бесплатно фильмы, игры, видео, картинки и многое другое.