Главная Торренты Топ Раздач Форум Правила Чат XXX

Привет, гость

Логин:

Пароль:



Регистрация Восстановление пароля


Наши друзья

 Торренты

:: Детали релиза
Скачать
Скачать Brazen.2022.1080p.WEB-DL.1080p.torrent
Название
Скачать
Мультитрекерная раздача

Золотой торрент Расплата за грехи / Brazen (2022) WEB-DL 1080p | Netflix

ТипТриллер
Хэш релиза323f726763cc661b7c09aa1118c2af876639c8ed
Проверено
Этот торрент проверен Администрацией.
Изображение для Расплата за грехи / Brazen (2022) WEB-DL 1080p | Netflix (кликните для просмотра полного изображения)
Скриншоты, кадры (Посмотреть)
Изображение для Расплата за грехи / Brazen (2022) WEB-DL 1080p | Netflix (кликните для просмотра полного изображения)
Изображение для Расплата за грехи / Brazen (2022) WEB-DL 1080p | Netflix (кликните для просмотра полного изображения)
Изображение для Расплата за грехи / Brazen (2022) WEB-DL 1080p | Netflix (кликните для просмотра полного изображения)
Изображение для Расплата за грехи / Brazen (2022) WEB-DL 1080p | Netflix (кликните для просмотра полного изображения)
Информация о фильме
Название: Расплата за грехи
Оригинальное название: Brazen
Год выхода: 2022
Жанр: Триллер, драма, мелодрама, криминал, детектив
Режиссер: Моника Митчелл
В ролях: Алисса Милано, Сэмюэл Пейдж, Коллин Вилер, Бэрри В. Леви, Мэттью Финлан, Лоссен Чэмберс, Малачи Вейр, Аарон Пол Стюарт

Описание: Писательница детективных романов Грейс оказывается в эпицентре криминальной истории, которая даст фору сюжетам ее книг. Героиня узнает, что ее погибшая сестра Кэтлин вела двойную жизнь: днем она работала в школе учительницей, а по ночам — вебкам-моделью. Грейс начинает собственное расследование смерти своей сестры, выясняя, что в фирме, на которую та работала, Кэтлин не первая убитая девушка. Чтобы докопаться до истины, Грейс готова заплатить любую цену.

image

Выпущено: США / Mandalay Pictures
Продолжительность: 01:36:18
Перевод: Дублированный | Netflix

Файл
Формат: MKV
Качество: WEB-DL 1080p
Видео: MPEG-4 AVC, 1920x1080, 24fps, 2389 Kbit/s
Аудио #01: 48 kHz, E-AC3, 5.1, 640 Kbps | Дублированный | Netflix | RUS
Аудио #02: 48 kHz, AC3, 5.1, 640 Kbps | Дублированный | Netflix | RUS
Аудио #03: 48 kHz, E-AC3+Atmos, 5.1, 768 Kbps | Оригинал | ENG
Субтитры: Русские (Forced, full), украинские (Full), английские

MediaInfo
Format : Matroska
Format version : Version 4
File size : 2.86 GiB
Duration : 1 h 36 min
Overall bit rate mode : Variable
Overall bit rate : 4 256 kb/s
Movie name : Brazen 2022 from seleZen
Encoded date : UTC 2022-01-13 08:14:08
Writing application : mkvmerge v59.0.0 ('Shining Star') 64-bit
Writing library : libebml v1.4.2 + libmatroska v1.6.4

Video
ID : 1
Format : AVC
Format/Info : Advanced Video Codec
Format profile : [email protected]
Format settings : CABAC / 3 Ref Frames
Format settings, CABAC : Yes
Format settings, Reference : 3 frames
Codec ID : V_MPEG4/ISO/AVC
Duration : 1 h 36 min
Bit rate mode : Variable
Bit rate : 2 205 kb/s
Nominal bit rate : 2 389 kb/s
Maximum bit rate : 4 110 kb/s
Width : 1 920 pixels
Height : 1 080 pixels
Display aspect ratio : 16:9
Frame rate mode : Constant
Frame rate : 24.000 FPS
Color space : YUV
Chroma subsampling : 4:2:0
Bit depth : 8 bits
Scan type : Progressive
Bits/(Pixel*Frame) : 0.044
Stream size : 1.48 GiB (52%)
Writing library : x264 core 148 r2727 7d026e8
Encoding settings : cabac=1 / ref=3 / deblock=1:0:0 / analyse=0x1:0x111 / me=umh / subme=10 / psy=1 / psy_rd=1.00:0.00 / mixed_ref=1 / me_range=24 / chroma_me=1 / trellis=2 / 8x8dct=0 / cqm=0 / deadzone=21,11 / fast_pskip=1 / chroma_qp_offset=-2 / threads=6 / lookahead_threads=1 / sliced_threads=0 / nr=0 / decimate=1 / interlaced=0 / bluray_compat=0 / stitchable=1 / constrained_intra=0 / bframes=2 / b_pyramid=0 / b_adapt=2 / b_bias=0 / direct=3 / weightb=1 / open_gop=0 / weightp=2 / keyint=250 / keyint_min=24 / scenecut=0 / intra_refresh=0 / rc_lookahead=48 / rc=2pass / mbtree=1 / bitrate=2389 / ratetol=1.0 / qcomp=0.50 / qpmin=6 / qpmax=51 / qpstep=4 / cplxblur=20.0 / qblur=0.5 / vbv_maxrate=4110 / vbv_bufsize=5480 / nal_hrd=vbr / filler=0 / ip_ratio=1.40 / aq=1:1.00
Default : Yes
Forced : No

Audio #1
ID : 2
Format : E-AC-3
Format/Info : Enhanced AC-3
Commercial name : Dolby Digital Plus
Codec ID : A_EAC3
Duration : 1 h 36 min
Bit rate mode : Constant
Bit rate : 640 kb/s
Channel(s) : 6 channels
Channel layout : L R C LFE Ls Rs
Sampling rate : 48.0 kHz
Frame rate : 31.250 FPS (1536 SPF)
Compression mode : Lossy
Stream size : 441 MiB (15%)
Language : Russian
Service kind : Complete Main
Default : Yes
Forced : No

Audio #2
ID : 3
Format : AC-3
Format/Info : Audio Coding 3
Commercial name : Dolby Digital
Codec ID : A_AC3
Duration : 1 h 36 min
Bit rate mode : Constant
Bit rate : 640 kb/s
Channel(s) : 6 channels
Channel layout : L R C LFE Ls Rs
Sampling rate : 48.0 kHz
Frame rate : 31.250 FPS (1536 SPF)
Compression mode : Lossy
Stream size : 441 MiB (15%)
Language : Russian
Service kind : Complete Main
Default : No
Forced : No

Audio #3
ID : 4
Format : E-AC-3 JOC
Format/Info : Enhanced AC-3 with Joint Object Coding
Commercial name : Dolby Digital Plus with Dolby Atmos
Codec ID : A_EAC3
Duration : 1 h 36 min
Bit rate mode : Constant
Bit rate : 768 kb/s
Channel(s) : 6 channels
Channel layout : L R C LFE Ls Rs
Sampling rate : 48.0 kHz
Frame rate : 31.250 FPS (1536 SPF)
Compression mode : Lossy
Stream size : 529 MiB (18%)
Title : Original
Language : English
Service kind : Complete Main
Default : No
Forced : No
Complexity index : 16
Number of dynamic objects : 15
Bed channel count : 1 channel
Bed channel configuration : LFE

Text #1
ID : 5
Format : UTF-8
Codec ID : S_TEXT/UTF8
Codec ID/Info : UTF-8 Plain Text
Duration : 1 h 34 min
Bit rate : 2 b/s
Count of elements : 35
Stream size : 1.39 KiB (0%)
Title : Forced
Language : Russian
Default : Yes
Forced : Yes

Text #2
ID : 6
Format : UTF-8
Codec ID : S_TEXT/UTF8
Codec ID/Info : UTF-8 Plain Text
Duration : 1 h 34 min
Bit rate : 90 b/s
Count of elements : 1203
Stream size : 62.3 KiB (0%)
Title : Full
Language : Russian
Default : No
Forced : No

Text #3
ID : 7
Format : UTF-8
Codec ID : S_TEXT/UTF8
Codec ID/Info : UTF-8 Plain Text
Duration : 1 h 34 min
Bit rate : 90 b/s
Count of elements : 1169
Stream size : 62.6 KiB (0%)
Title : Full
Language : Ukrainian
Default : No
Forced : No

Text #4
ID : 8
Format : UTF-8
Codec ID : S_TEXT/UTF8
Codec ID/Info : UTF-8 Plain Text
Duration : 1 h 28 min
Bit rate : 62 b/s
Count of elements : 1169
Stream size : 40.9 KiB (0%)
Language : English
Default : No
Forced : No

Text #5
ID : 9
Format : UTF-8
Codec ID : S_TEXT/UTF8
Codec ID/Info : UTF-8 Plain Text
Duration : 1 h 31 min
Bit rate : 67 b/s
Count of elements : 1303
Stream size : 44.9 KiB (0%)
Title : SDH
Language : English
Default : No
Forced : No
РаздающийПоследний раз был здесь 1 неделю 3 дня 22 часа 41 минуту 40 секунд  назад
Размер2.86 GB (3,074,476,183 байт)
Добавлен13 января 2022 в 21:00:21
Проголосуй за трекер

<< Предыдущий релиз  [из этой категории]   |   [из этой категории]  Следующий релиз >>
Все релизы   |   Все релизы этой категории
:: Список комментариев http://bigfangroup.org
Комментариев нет. Желаете добавить?


Обратная связь: [email protected]
© 2022 BigFANGroup 4.1. Powered by Kinokpk.com releaser 2.70 © 2008-2022.
Торрент трекер, форум трекера, скачать бесплатно фильмы, игры, видео, картинки и многое другое.