Главная Торренты Топ Раздач Форум Правила Чат XXX

Привет, гость

Логин:

Пароль:



Регистрация Восстановление пароля


Наши друзья

 Торренты

:: Детали релиза
Скачать
Скачать Last_Night_in_Soho_2021_BDRip_1080p.torrent
Название
Скачать
Мультитрекерная раздача

Золотой торрент Прошлой ночью в Сохо / Last Night in Soho (2021) BDRip 1080p | Jaskier

ТипТриллер
Хэш релиза0fdc820fed9d29b31ddd4180a2ec543872536b3c
Проверено
Этот торрент проверен Администрацией.
Изображение для Прошлой ночью в Сохо / Last Night in Soho (2021) BDRip 1080p | Jaskier (кликните для просмотра полного изображения)
Скриншоты, кадры (Посмотреть)
Изображение для Прошлой ночью в Сохо / Last Night in Soho (2021) BDRip 1080p | Jaskier (кликните для просмотра полного изображения)
Изображение для Прошлой ночью в Сохо / Last Night in Soho (2021) BDRip 1080p | Jaskier (кликните для просмотра полного изображения)
Изображение для Прошлой ночью в Сохо / Last Night in Soho (2021) BDRip 1080p | Jaskier (кликните для просмотра полного изображения)
Изображение для Прошлой ночью в Сохо / Last Night in Soho (2021) BDRip 1080p | Jaskier (кликните для просмотра полного изображения)
Информация о фильме
Название: Прошлой ночью в Сохо
Оригинальное название: Last Night in Soho
Год выпуска: 2021
Жанр: Триллер, ужасы, драма
Режиссер: Эдгар Райт
В ролях: Томасин Маккензи, Аня Тейлор-Джой, Мэтт Смит, Дайана Ригг, Эйми Кассеттари, Рита Тушингем, Колин Мейс, Майкл Аджао, Синнов Карлсен, Джесси Мей Ли, Кассиус Нельсон, Ребекка Харрод, Алан Махон, Коннор Калланд, Джинн МакЛайнн , Теренс Стэмп, Джеки-Ли Прайс, Элизабет Беррингтон, Джеймс Фелпс

Описание: История девушки, которая учится в Лондоне на дизайнера одежды и мистическим образом перемещается в 1960-е годы, где встречает своего кумира — ослепительную начинающую певицу. Лондон того периода совсем не так привлекателен, как кажется сначала, а время может сыграть с ней злую шутку.

image

Выпущено: Великобритания / Complete Fiction, Film4, Focus Features International (FFI), Perfect World (Beijing) Pictures Co., Perfect World Pictures,Working Title Films
Продолжительность: 01:57:03
Перевод: Профессиональный многоголосый | Jaskier

Файл
Формат: MKV
Качество: BDRip 1080p
Видео: MPEG-4 AVC, 21,4 Мбит/с, 1920x804
Аудио #1: AC3, 6 ch, 448 Кбит/с | RUS
Аудио #2: AC3, 6 ch, 640 Кбит/с | ENG
Субтитры: Русские (full (StasSlender)), английские

MediaInfo
Формат : Matroska
Версия формата : Version 4
Размер файла : 18,3 Гбайт
Продолжительность : 1 ч. 56 м.
Общий поток : 22,5 Мбит/сек
Название фильма : Last.Night.in.Soho.2021.BDRip.1080p_от New-Team
Дата кодирования : UTC 2022-01-13 11:17:03
Программа кодирования : mkvmerge v59.0.0 ('Shining Star') 64-bit
Библиотека кодирования : libebml v1.4.2 + libmatroska v1.6.4

Видео
Идентификатор : 1
Формат : AVC
Формат/Информация : Advanced Video Codec
Профиль формата : [email protected]
Настройки формата : CABAC / 5 Ref Frames
Параметр CABAC формата : Да
Параметр RefFrames формата : 5 кадров
Идентификатор кодека : V_MPEG4/ISO/AVC
Продолжительность : 1 ч. 56 м.
Битрейт : 21,4 Мбит/сек
Ширина : 1 920 пикселей
Высота : 804 пикселя
Соотношение сторон : 2,40:1
Режим частоты кадров : Постоянный
Частота кадров : 23,976 (24000/1001) кадра/сек
Цветовое пространство : YUV
Субдискретизация насыщенности : 4:2:0
Битовая глубина : 8 бит
Тип развёртки : Прогрессивная
Бит/(Пиксели*Кадры) : 0.578
Размер потока : 17,4 Гбайт (95%)
Библиотека кодирования : x264 core 157 r2938 2b00a84 [email protected] Mod
Настройки программы : cabac=1 / ref=5 / deblock=1:-3:-3 / analyse=0x3:0x133 / me=umh / subme=10 / psy=1 / psy_rd=1.05:0.00 / mixed_ref=1 / me_range=32 / chroma_me=1 / trellis=2 / 8x8dct=1 / cqm=0 / deadzone=21,11 / fast_pskip=0 / chroma_qp_offset=-2 / threads=12 / lookahead_threads=2 / sliced_threads=0 / nr=0 / decimate=0 / interlaced=0 / bluray_compat=0 / constrained_intra=0 / bframes=8 / b_pyramid=2 / b_adapt=2 / b_bias=0 / direct=3 / weightb=1 / open_gop=0 / weightp=2 / keyint=250 / keyint_min=24 / scenecut=40 / intra_refresh=0 / rc_lookahead=250 / rc=crf / mbtree=0 / crf=16.8 / qcomp=0.60 / qpmin=0 / qpmax=69 / qpstep=4 / vbv_maxrate=62500 / vbv_bufsize=78125 / crf_max=0.0 / nal_hrd=none / filler=0 / ip_ratio=1.30 / pb_ratio=1.20 / aq=3:0.80
Язык : English
Default : Да
Forced : Нет
Цветовой диапазон : Limited
Основные цвета : BT.709
Коэффициенты матрицы : BT.709

Аудио #1
Идентификатор : 2
Формат : AC-3
Формат/Информация : Audio Coding 3
Коммерческое название : Dolby Digital
Идентификатор кодека : A_AC3
Продолжительность : 1 ч. 56 м.
Вид битрейта : Постоянный
Битрейт : 448 Кбит/сек
Каналы : 6 каналов
Channel layout : L R C LFE Ls Rs
Частота : 48,0 КГц
Частота кадров : 31,250 кадров/сек (1536 SPF)
Метод сжатия : С потерями
Размер потока : 373 Мбайт (2%)
Заголовок : [MVO] Jaskier
Язык : Russian
Service kind : Complete Main
Default : Да
Forced : Нет

Аудио #2
Идентификатор : 3
Формат : AC-3
Формат/Информация : Audio Coding 3
Коммерческое название : Dolby Digital
Идентификатор кодека : A_AC3
Продолжительность : 1 ч. 56 м.
Вид битрейта : Постоянный
Битрейт : 640 Кбит/сек
Каналы : 6 каналов
Channel layout : L R C LFE Ls Rs
Частота : 48,0 КГц
Частота кадров : 31,250 кадров/сек (1536 SPF)
Метод сжатия : С потерями
Размер потока : 534 Мбайт (3%)
Язык : English
Service kind : Complete Main
Default : Нет
Forced : Нет

Текст #1
Идентификатор : 4
Формат : UTF-8
Идентификатор кодека : S_TEXT/UTF8
Идентификатор кодека/Информация : UTF-8 Plain Text
Продолжительность : 1 ч. 55 м.
Битрейт : 80 бит/сек
Count of elements : 1520
Размер потока : 67,7 Кбайт (0%)
Заголовок : [full]
Язык : Russian
Default : Нет
Forced : Нет

Текст #2
Идентификатор : 5
Формат : UTF-8
Идентификатор кодека : S_TEXT/UTF8
Идентификатор кодека/Информация : UTF-8 Plain Text
Продолжительность : 1 ч. 54 м.
Битрейт : 56 бит/сек
Count of elements : 1810
Размер потока : 47,2 Кбайт (0%)
Язык : English
Default : Нет
Forced : Нет

Меню
00:00:00.000 : Chapter 01
00:06:08.285 : Chapter 02
00:13:28.016 : Chapter 03
00:17:58.411 : Chapter 04
00:22:24.885 : Chapter 05
00:26:44.228 : Chapter 06
00:33:47.651 : Chapter 07
00:40:02.567 : Chapter 08
00:44:41.012 : Chapter 09
00:51:25.082 : Chapter 10
00:57:22.105 : Chapter 11
01:03:52.912 : Chapter 12
01:09:08.144 : Chapter 13
01:14:40.851 : Chapter 14
01:20:37.666 : Chapter 15
01:26:46.076 : Chapter 16
01:34:01.094 : Chapter 17
01:41:23.911 : Chapter 18
01:49:58.801 : Chapter 19
01:52:18.231 : Chapter 20
РаздающийПоследний раз был здесь 1 неделю 3 дня 22 часа 57 минут 32 секунды  назад
Размер18.29 GB (19,642,654,411 байт)
Добавлен13 января 2022 в 21:52:55
Проголосуй за трекер

<< Предыдущий релиз  [из этой категории]   |   [из этой категории]  Следующий релиз >>
Все релизы   |   Все релизы этой категории
:: Список комментариев http://bigfangroup.org
Комментариев нет. Желаете добавить?


Обратная связь: [email protected]
© 2022 BigFANGroup 4.1. Powered by Kinokpk.com releaser 2.70 © 2008-2022.
Торрент трекер, форум трекера, скачать бесплатно фильмы, игры, видео, картинки и многое другое.