Главная Торренты Топ Раздач Форум Правила Чат XXX

Привет, гость

Логин:

Пароль:



Регистрация Восстановление пароля


Наши друзья

 Торренты

:: Детали релиза
Скачать
Скачать Aileen_Wuornos_American_Boogeyw.torrent
Название
Скачать
Мультитрекерная раздача

Золотой торрент Монстр: Начало / Aileen Wuornos: American Boogeywoman (2021) BDRip 720p | iTunes

ТипУжасы
Хэш релизаfcf9782d0c9f6b03640c7d97b9964eb4f7d128cd
Проверено
Этот торрент проверен Администрацией.
Изображение для Монстр: Начало / Aileen Wuornos: American Boogeywoman (2021) BDRip 720p | iTunes (кликните для просмотра полного изображения)
Скриншоты, кадры (Посмотреть)
Изображение для Монстр: Начало / Aileen Wuornos: American Boogeywoman (2021) BDRip 720p | iTunes (кликните для просмотра полного изображения)
Изображение для Монстр: Начало / Aileen Wuornos: American Boogeywoman (2021) BDRip 720p | iTunes (кликните для просмотра полного изображения)
Изображение для Монстр: Начало / Aileen Wuornos: American Boogeywoman (2021) BDRip 720p | iTunes (кликните для просмотра полного изображения)
Изображение для Монстр: Начало / Aileen Wuornos: American Boogeywoman (2021) BDRip 720p | iTunes (кликните для просмотра полного изображения)
Информация о фильме
Название: Монстр: Начало
Оригинальное название: Aileen Wuornos: American Boogeywoman
Год выхода: 2021
Жанр: Ужасы, триллер, драма
Режиссер: Дэниэл Фаррандс
В ролях: Пейтон Лист, Тобин Белл, Лидия Хёрст, Свен Теммел, Эндрю Биернат, Эшли Этвуд, Линкольн Браун, Криста Коллинз, Крис Корбин, Уилльям Доберт

Описание: В поисках новой жизни Эйлин приезжает во Флориду, где выходит замуж за президента яхт-клуба и попадает в высшее общество…

image

Выпущено: США / 1428 Films, Green Light Pictures, Redwire Pictures
Продолжительность: 01:25:30
Перевод: Дублированный | iTunes

Файл
Формат: MKV
Качество: BDRip 720p
Видео: MPEG-4 AVC/H.264, 3220 Кбит/сек, 1280x674
Аудио #1: Русский: AC3, 6 ch, 384 Кбит/сек
Аудио #2: Английский: AC3, 6 ch, 640 Кбит/сек
Субтитры: Английские, украинские, голландские (Вшитые отключаемые)
Дополнительно: Сохранены оригинальные главы

MediaInfo
Формат : Matroska
Версия формата : Version 4
Размер файла : 2,55 Гбайт
Продолжительность : 1 ч. 25 м.
Общий поток : 4 263 Кбит/сек
Программа кодирования : Lavf
Библиотека кодирования : Lavf
Авторское право : *=#=*
ErrorDetectionType : Per level 1
Attachments : poster.png
Язык : und

Видео
Идентификатор : 1
Формат : AVC
Формат/Информация : Advanced Video Codec
Профиль формата : [email protected]
Настройки формата : CABAC / 9 Ref Frames
Параметр CABAC формата : Да
Параметр RefFrames формата : 9 кадров
Идентификатор кодека : V_MPEG4/ISO/AVC
Продолжительность : 1 ч. 25 м.
Битрейт : 3 220 Кбит/сек
Ширина : 1 280 пикселей
Высота : 674 пикселя
Соотношение сторон : 1,899
Режим частоты кадров : Постоянный
Частота кадров : 23,976 (24000/1001) кадра/сек
Цветовое пространство : YUV
Субдискретизация насыщенности : 4:2:0
Битовая глубина : 8 бит
Тип развёртки : Прогрессивная
Бит/(Пиксели*Кадры) : 0.156
Размер потока : 1,88 Гбайт (74%)
Заголовок : USA (1428 Films, Green Light Pictures, Redwire Pictures)
Библиотека кодирования : x264 core 159 r2991 1771b55
Настройки программы : cabac=1 / ref=9 / deblock=1:-3:-3 / analyse=0x3:0x133 / me=umh / subme=11 / psy=1 / psy_rd=1.00:0.15 / mixed_ref=1 / me_range=32 / chroma_me=1 / trellis=2 / 8x8dct=1 / cqm=0 / deadzone=21,18 / fast_pskip=0 / chroma_qp_offset=-3 / threads=29 / lookahead_threads=5 / sliced_threads=0 / nr=60 / decimate=0 / interlaced=0 / bluray_compat=0 / constrained_intra=0 / bframes=16 / b_pyramid=2 / b_adapt=2 / b_bias=10 / direct=3 / weightb=1 / open_gop=0 / weightp=2 / keyint=240 / keyint_min=24 / scenecut=40 / intra_refresh=0 / rc_lookahead=60 / rc=2pass / mbtree=0 / bitrate=3220 / ratetol=1.0 / qcomp=0.70 / qpmin=3 / qpmax=69 / qpstep=4 / cplxblur=20.0 / qblur=0.5 / vbv_maxrate=5000 / vbv_bufsize=4000 / nal_hrd=none / filler=0 / ip_ratio=1.40 / pb_ratio=1.30 / aq=1:0.60
Язык : English
Default : Да
Forced : Нет
Цветовой диапазон : Limited
Основные цвета : BT.709
Характеристики трансфера : BT.709
Коэффициенты матрицы : BT.709

Аудио #1
Идентификатор : 2
Формат : AC-3
Формат/Информация : Audio Coding 3
Коммерческое название : Dolby Digital
Идентификатор кодека : A_AC3
Продолжительность : 1 ч. 25 м.
Вид битрейта : Постоянный
Битрейт : 384 Кбит/сек
Каналы : 6 каналов
Channel layout : L R C LFE Ls Rs
Частота : 48,0 КГц
Частота кадров : 31,250 кадров/сек (1536 SPF)
Битовая глубина : 32 бит
Метод сжатия : С потерями
Размер потока : 235 Мбайт (9%)
Заголовок : Dub (Akimbo Production / iTunes)
Язык : Russian
Service kind : Complete Main
Default : Да
Forced : Нет

Аудио #2
Идентификатор : 3
Формат : AC-3
Формат/Информация : Audio Coding 3
Коммерческое название : Dolby Digital
Идентификатор кодека : A_AC3
Продолжительность : 1 ч. 25 м.
Вид битрейта : Постоянный
Битрейт : 640 Кбит/сек
Каналы : 6 каналов
Channel layout : L R C LFE Ls Rs
Частота : 48,0 КГц
Частота кадров : 31,250 кадров/сек (1536 SPF)
Битовая глубина : 32 бит
Метод сжатия : С потерями
Размер потока : 391 Мбайт (15%)
Заголовок : Original (English)
Язык : English
Service kind : Complete Main
Default : Нет
Forced : Нет

Текст #1
Идентификатор : 4
Формат : UTF-8
Идентификатор кодека : S_TEXT/UTF8
Идентификатор кодека/Информация : UTF-8 Plain Text
Заголовок : SDH
Язык : English
Default : Да
Forced : Нет

Текст #2
Идентификатор : 5
Формат : ASS
Идентификатор кодека : S_TEXT/ASS
Идентификатор кодека/Информация : Advanced Sub Station Alpha
Метод сжатия : Без потерь
Язык : Ukrainian
Default : Нет
Forced : Нет

Текст #3
Идентификатор : 6
Формат : PGS
Идентификатор кодека : S_HDMV/PGS
Идентификатор кодека/Информация : Picture based subtitle format used on BDs/HD-DVDs
Язык : Dutch
Default : Нет
Forced : Нет

Меню
00:00:00.000 : :Chapter 01
00:12:57.860 : :Chapter 02
00:23:40.169 : :Chapter 03
00:34:19.349 : :Chapter 04
00:45:47.536 : :Chapter 05
00:52:42.534 : :Chapter 06
01:05:00.772 : :Chapter 07
01:17:57.590 : :Chapter 08
01:21:31.345 : :Chapter 09
РаздающийПоследний раз был здесь 1 неделю 3 дня 19 часов 25 минут 43 секунды  назад
Размер2.55 GB (2,733,768,667 байт)
Добавлен14 января 2022 в 00:07:04
Проголосуй за трекер

<< Предыдущий релиз  [из этой категории]   |   [из этой категории]  Следующий релиз >>
Все релизы   |   Все релизы этой категории
:: Список комментариев http://bigfangroup.org
Комментариев нет. Желаете добавить?


Обратная связь: [email protected]
© 2022 BigFANGroup 4.1. Powered by Kinokpk.com releaser 2.70 © 2008-2022.
Торрент трекер, форум трекера, скачать бесплатно фильмы, игры, видео, картинки и многое другое.