Главная Торренты Топ Раздач Форум Правила Чат XXX

Привет, гость

Логин:

Пароль:



Регистрация Восстановление пароля


Наши друзья

 Торренты

:: Детали релиза
Скачать
Скачать The.Tragedy.of.Macbeth.1080p.torrent
Название
Скачать
Мультитрекерная раздача

Золотой торрент Трагедия Макбета / The Tragedy of Macbeth (2021) WEB-DL 1080p | Невафильм

ТипТриллер
Хэш релиза7fde4fa5bfb9e1d648eee301d220386991659f04
Проверено
Этот торрент проверен Администрацией.
Изображение для Трагедия Макбета / The Tragedy of Macbeth (2021) WEB-DL 1080p | Невафильм (кликните для просмотра полного изображения)
Скриншоты, кадры (Посмотреть)
Изображение для Трагедия Макбета / The Tragedy of Macbeth (2021) WEB-DL 1080p | Невафильм (кликните для просмотра полного изображения)
Изображение для Трагедия Макбета / The Tragedy of Macbeth (2021) WEB-DL 1080p | Невафильм (кликните для просмотра полного изображения)
Изображение для Трагедия Макбета / The Tragedy of Macbeth (2021) WEB-DL 1080p | Невафильм (кликните для просмотра полного изображения)
Изображение для Трагедия Макбета / The Tragedy of Macbeth (2021) WEB-DL 1080p | Невафильм (кликните для просмотра полного изображения)
Информация о фильме
Название: Трагедия Макбета
Оригинальное название: The Tragedy of Macbeth
Жанр: Триллер, драма, военный, история
Год выпуска: 2021
Режиссер: Джоэл Коэн
В ролях: Дензел Вашингтон, Фрэнсис МакДорманд, Алекс Хэсселл, Берти Карвел, Брендан Глисон, Кори Хоукинс, Гарри Меллинг, Майлз Андерсон, Мэтт Хельм, Моусес Ингрэм, Кэтрин Хантер, Макс Бейкер, Скотт Субионо, Брайан Томпсон, Лукас Баркер

Описание: По одноимённой пьесе Уильяма Шекспира. Ведьмы убеждают шотландского лорда Макбета в том, что ему суждено стать королём. Предавая друзей и следуя советам честолюбивой жены, он выбирает зло способом достижения своих целей.

image

Выпущено: США / A24, IAC Films
Продолжительность: 01:45:08
Перевод: Дублированный | Невафильм

Файл
MKV: MKV
Качество: WEB-DL 1080p
Видео: AVC, 1478x1080, 23.976fps, 9963 Kb/s
Аудио 1: E-AC3 ATMOS, 48 kHz, 6 ch, 768 Kb/s | Rus
Аудио 2: E-AC3 ATMOS, 48 kHz, 6 ch, 768 Kb/s | Rus | Тифлокомментирование
Аудио 3: E-AC3 ATMOS, 48 kHz, 6 ch, 768 Kb/s | Eng
Субтитры: Русские (Forced, Full, SDH), английские (Full, SDH), иврит, украинские

MediaInfo
Format : Matroska
Format version : Version 4
File size : 9.01 GiB
Duration : 1 h 45 min
Overall bit rate : 12.3 Mb/s
Movie name : The Tragedy of Macbeth (2021) - EniaHD
Writing application : mkvmerge v57.0.0 ('Till The End') 64-bit
Writing library : libebml v1.4.2 + libmatroska v1.6.4

Video
ID : 1
Format : AVC
Format/Info : Advanced Video Codec
Format profile : [email protected]
Format settings : CABAC / 5 Ref Frames
Format settings, CABAC : Yes
Format settings, Reference fra : 5 frames
Codec ID : V_MPEG4/ISO/AVC
Duration : 1 h 45 min
Bit rate : 9 963 kb/s
Width : 1 478 pixels
Height : 1 080 pixels
Display aspect ratio : 4:3
Frame rate mode : Constant
Frame rate : 23.976 (24000/1001) FPS
Color space : YUV
Chroma subsampling : 4:2:0
Bit depth : 8 bits
Scan type : Progressive
Bits/(Pixel*Frame) : 0.260
Stream size : 7.32 GiB (81%)
Default : Yes
Forced : No
Color range : Limited
Color primaries : BT.709
Transfer characteristics : BT.709
Matrix coefficients : BT.709

Audio #1
ID : 2
Format : E-AC-3 JOC
Format/Info : Enhanced AC-3 with Joint Object Coding
Commercial name : Dolby Digital Plus with Dolby Atmos
Codec ID : A_EAC3
Duration : 1 h 45 min
Bit rate mode : Constant
Bit rate : 768 kb/s
Channel(s) : 6 channels
Channel layout : L R C LFE Ls Rs
Sampling rate : 48.0 kHz
Frame rate : 31.250 FPS (1536 SPF)
Compression mode : Lossy
Stream size : 578 MiB (6%)
Language : Russian
Service kind : Complete Main
Default : Yes
Forced : No
Complexity index : 16
Number of dynamic objects : 15
Bed channel count : 1 channel
Bed channel configuration : LFE

Audio #2
ID : 3
Format : E-AC-3 JOC
Format/Info : Enhanced AC-3 with Joint Object Coding
Commercial name : Dolby Digital Plus with Dolby Atmos
Codec ID : A_EAC3
Duration : 1 h 45 min
Bit rate mode : Constant
Bit rate : 768 kb/s
Channel(s) : 6 channels
Channel layout : L R C LFE Ls Rs
Sampling rate : 48.0 kHz
Frame rate : 31.250 FPS (1536 SPF)
Compression mode : Lossy
Stream size : 578 MiB (6%)
Title : Audio Deion
Language : Russian
Service kind : Complete Main
Default : No
Forced : No
Complexity index : 16
Number of dynamic objects : 15
Bed channel count : 1 channel
Bed channel configuration : LFE

Audio #3
ID : 4
Format : E-AC-3 JOC
Format/Info : Enhanced AC-3 with Joint Object Coding
Commercial name : Dolby Digital Plus with Dolby Atmos
Codec ID : A_EAC3
Duration : 1 h 45 min
Bit rate mode : Constant
Bit rate : 768 kb/s
Channel(s) : 6 channels
Channel layout : L R C LFE Ls Rs
Sampling rate : 48.0 kHz
Frame rate : 31.250 FPS (1536 SPF)
Compression mode : Lossy
Stream size : 578 MiB (6%)
Language : English
Service kind : Complete Main
Default : No
Forced : No
Complexity index : 16
Number of dynamic objects : 15
Bed channel count : 1 channel
Bed channel configuration : LFE

Text #1
ID : 5
Format : UTF-8
Codec ID : S_TEXT/UTF8
Codec ID/Info : UTF-8 Plain Text
Duration : 1 h 31 min
Bit rate : 0 b/s
Count of elements : 3
Stream size : 101 Bytes (0%)
Title : Forced
Language : Russian
Default : Yes
Forced : No

Text #2
ID : 6
Format : UTF-8
Codec ID : S_TEXT/UTF8
Codec ID/Info : UTF-8 Plain Text
Duration : 1 h 44 min
Bit rate : 100 b/s
Count of elements : 1369
Stream size : 76.6 KiB (0%)
Language : Russian
Default : No
Forced : No

Text #3
ID : 7
Format : UTF-8
Codec ID : S_TEXT/UTF8
Codec ID/Info : UTF-8 Plain Text
Duration : 1 h 44 min
Bit rate : 110 b/s
Count of elements : 1517
Stream size : 84.7 KiB (0%)
Title : SDH
Language : Russian
Default : No
Forced : No

Text #4
ID : 8
Format : UTF-8
Codec ID : S_TEXT/UTF8
Codec ID/Info : UTF-8 Plain Text
Duration : 1 h 39 min
Bit rate : 71 b/s
Count of elements : 1346
Stream size : 52.2 KiB (0%)
Language : English
Default : No
Forced : No

Text #5
ID : 9
Format : UTF-8
Codec ID : S_TEXT/UTF8
Codec ID/Info : UTF-8 Plain Text
Duration : 1 h 41 min
Bit rate : 76 b/s
Count of elements : 1487
Stream size : 56.5 KiB (0%)
Title : SDH
Language : English
Default : No
Forced : No

Text #6
ID : 10
Format : UTF-8
Codec ID : S_TEXT/UTF8
Codec ID/Info : UTF-8 Plain Text
Duration : 1 h 44 min
Bit rate : 84 b/s
Count of elements : 1350
Stream size : 64.3 KiB (0%)
Language : Hebrew
Default : No
Forced : No

Text #7
ID : 11
Format : UTF-8
Codec ID : S_TEXT/UTF8
Codec ID/Info : UTF-8 Plain Text
Duration : 1 h 44 min
Bit rate : 100 b/s
Count of elements : 1349
Stream size : 76.7 KiB (0%)
Language : Ukrainian
Default : No
Forced : No
РаздающийПоследний раз был здесь 1 неделю 3 дня 10 часов 33 минуты 6 секунд  назад
Размер9.01 GB (9,676,835,094 байт)
Добавлен14 января 2022 в 10:08:05
Проголосуй за трекер

<< Предыдущий релиз  [из этой категории]   |   [из этой категории]  Следующий релиз >>
Все релизы   |   Все релизы этой категории
:: Список комментариев http://bigfangroup.org
Комментариев нет. Желаете добавить?


Обратная связь: [email protected]
© 2022 BigFANGroup 4.1. Powered by Kinokpk.com releaser 2.70 © 2008-2022.
Торрент трекер, форум трекера, скачать бесплатно фильмы, игры, видео, картинки и многое другое.