Главная Торренты Топ Раздач Форум Правила Чат XXX

Привет, гость

Логин:

Пароль:



Регистрация Восстановление пароля


Наши друзья

 Торренты

:: Детали релиза
Скачать
Скачать Irreversible - Inversion Integrale (2020) BDRip 720p.mkv.torrent
Название
Скачать
Мультитрекерная раздача

Золотой торрент Необратимость. Полная инверсия / Irreversible - Inversion Integrale (2020) BDRip 720p | P2

ТипТриллер
Хэш релизаd80a329fb770403033fc5e72d00692b7878fde10
Проверено
Этот торрент проверен Администрацией.
Изображение для Необратимость. Полная инверсия / Irreversible - Inversion Integrale (2020) BDRip 720p | P2 (кликните для просмотра полного изображения)
Скриншоты, кадры (Посмотреть)
Изображение для Необратимость. Полная инверсия / Irreversible - Inversion Integrale (2020) BDRip 720p | P2 (кликните для просмотра полного изображения)
Изображение для Необратимость. Полная инверсия / Irreversible - Inversion Integrale (2020) BDRip 720p | P2 (кликните для просмотра полного изображения)
Изображение для Необратимость. Полная инверсия / Irreversible - Inversion Integrale (2020) BDRip 720p | P2 (кликните для просмотра полного изображения)
Изображение для Необратимость. Полная инверсия / Irreversible - Inversion Integrale (2020) BDRip 720p | P2 (кликните для просмотра полного изображения)
Информация о фильме
Название: Необратимость. Полная инверсия
Оригинальное название: Irreversible - Inversion Integrale
Год выхода: 2020
Жанр: Триллер, драма, криминал, детектив
Режиссер: Гаспар Ноэ
В ролях: Моника Беллуччи, Венсан Кассель, Альбер Дюпонтель, Филипп Наон, Джо Престиа

Описание: После того как на молодую женщину зверски нападают в переходе, ее бойфренды — нынешний и бывший — не в силах сдержать гнев, отправляются собственноручно восстановить справедливость.

image

Выпущено: Франция / 120 Films, Eskwad, Les Cinemas de la Zone, Nord-Ouest Productions, Studio Canal
Продолжительность: 01:26:01
Перевод: Профессиональный двухголосый | CP Digital

Файл
Формат: MKV
Качество: BDRip 720p
Видео: MPEG-4 AVC/H.264, 3220 Кбит/сек, 1280x530
Аудио 1: Русский: AC3, 6 ch, 448 Кбит/сек
Аудио 2: Французский: AC3, 6 ch, 448 Кбит/сек
Дополнительно: Сохранены оригинальные главы

MediaInfo
Формат : Matroska
Версия формата : Version 4
Размер файла : 2,46 Гбайт
Продолжительность : 1 ч. 26 м.
Общий поток : 4 100 Кбит/сек
Программа кодирования : Lavf
Библиотека кодирования : Lavf
Авторское право : *=#=*
ErrorDetectionType : Per level 1
Attachments : poster.png
Язык : und

Видео
Идентификатор : 1
Формат : AVC
Формат/Информация : Advanced Video Codec
Профиль формата : [email protected]
Настройки формата : CABAC / 12 Ref Frames
Параметр CABAC формата : Да
Параметр RefFrames формата : 12 кадров
Идентификатор кодека : V_MPEG4/ISO/AVC
Продолжительность : 1 ч. 26 м.
Битрейт : 3 220 Кбит/сек
Ширина : 1 280 пикселей
Высота : 530 пикселей
Соотношение сторон : 2,40:1
Режим частоты кадров : Постоянный
Частота кадров : 25,000 кадров/сек
Цветовое пространство : YUV
Субдискретизация насыщенности : 4:2:0
Битовая глубина : 8 бит
Тип развёртки : Прогрессивная
Бит/(Пиксели*Кадры) : 0.190
Размер потока : 1,88 Гбайт (76%)
Заголовок : France
Библиотека кодирования : x264 core 159 r2991 1771b55
Настройки программы : cabac=1 / ref=12 / deblock=1:-3:-3 / analyse=0x3:0x133 / me=umh / subme=11 / psy=1 / psy_rd=1.00:0.15 / mixed_ref=1 / me_range=32 / chroma_me=1 / trellis=2 / 8x8dct=1 / cqm=0 / deadzone=21,18 / fast_pskip=0 / chroma_qp_offset=-3 / threads=29 / lookahead_threads=4 / sliced_threads=0 / nr=60 / decimate=0 / interlaced=0 / bluray_compat=0 / constrained_intra=0 / bframes=16 / b_pyramid=2 / b_adapt=2 / b_bias=10 / direct=3 / weightb=1 / open_gop=0 / weightp=2 / keyint=250 / keyint_min=25 / scenecut=40 / intra_refresh=0 / rc_lookahead=60 / rc=2pass / mbtree=0 / bitrate=3220 / ratetol=1.0 / qcomp=0.70 / qpmin=3 / qpmax=69 / qpstep=4 / cplxblur=20.0 / qblur=0.5 / vbv_maxrate=5000 / vbv_bufsize=4000 / nal_hrd=none / filler=0 / ip_ratio=1.40 / pb_ratio=1.30 / aq=1:0.60
Язык : French
Default : Да
Forced : Нет
Цветовой диапазон : Limited
Основные цвета : BT.709
Характеристики трансфера : BT.709
Коэффициенты матрицы : BT.709

Аудио #1
Идентификатор : 2
Формат : AC-3
Формат/Информация : Audio Coding 3
Коммерческое название : Dolby Digital
Идентификатор кодека : A_AC3
Продолжительность : 1 ч. 26 м.
Вид битрейта : Постоянный
Битрейт : 448 Кбит/сек
Каналы : 6 каналов
Channel layout : L R C LFE Ls Rs
Частота : 48,0 КГц
Частота кадров : 31,250 кадров/сек (1536 SPF)
Битовая глубина : 32 бит
Метод сжатия : С потерями
Размер потока : 276 Мбайт (11%)
Заголовок : DVO [CP Digital]
Язык : Russian
Service kind : Complete Main
Default : Да
Forced : Нет

Аудио #2
Идентификатор : 3
Формат : AC-3
Формат/Информация : Audio Coding 3
Коммерческое название : Dolby Digital
Идентификатор кодека : A_AC3
Продолжительность : 1 ч. 26 м.
Вид битрейта : Постоянный
Битрейт : 448 Кбит/сек
Каналы : 6 каналов
Channel layout : L R C LFE Ls Rs
Частота : 48,0 КГц
Частота кадров : 31,250 кадров/сек (1536 SPF)
Битовая глубина : 32 бит
Метод сжатия : С потерями
Размер потока : 276 Мбайт (11%)
Язык : French
Service kind : Complete Main
Default : Нет
Forced : Нет

Меню
00:00:00.000 : :(01)00:00:00:000
00:04:13.000 : :(02)00:04:13:000
00:17:59.400 : :(03)00:17:59:400
00:26:45.000 : :(04)00:26:45:000
00:39:08.000 : :(05)00:39:08:000
00:52:12.000 : :(06)00:52:12:000
00:58:42.480 : :(07)00:58:42:480
01:03:09.000 : :(08)01:03:09:000
01:05:49.000 : :(09)01:05:49:000
01:08:18.800 : :(10)01:08:18:800
01:17:53.000 : :(11)01:17:53:000
01:24:32.520 : :(12)01:24:32:520
РаздающийПоследний раз был здесь 1 неделю 3 дня 8 часов 31 минуту 29 секунд  назад
Размер2.46 GB (2,644,900,037 байт)
Добавлен14 января 2022 в 10:34:55
Проголосуй за трекер

<< Предыдущий релиз  [из этой категории]   |   [из этой категории]  Следующий релиз >>
Все релизы   |   Все релизы этой категории
:: Список комментариев http://bigfangroup.org
Комментариев нет. Желаете добавить?


Обратная связь: [email protected]
© 2022 BigFANGroup 4.1. Powered by Kinokpk.com releaser 2.70 © 2008-2022.
Торрент трекер, форум трекера, скачать бесплатно фильмы, игры, видео, картинки и многое другое.