Главная Торренты Топ Раздач Форум Правила Чат XXX

Привет, гость

Логин:

Пароль:



Регистрация Восстановление пароля


Наши друзья

 Торренты

:: Детали релиза
Скачать
Скачать The.Comeback.Trail.2020.BDRip.720p.torrent
Название
Скачать
Мультитрекерная раздача

Золотой торрент Афера по-голливудски / The Comeback Trail (2020) BDRip 720p | iTunes

ТипКомедия
Хэш релизаa90e4768a20c9c5f75966fc3af94917b6ff87d4d
Проверено
Этот торрент проверен Администрацией.
Изображение для Афера по-голливудски / The Comeback Trail (2020) BDRip 720p | iTunes (кликните для просмотра полного изображения)
Скриншоты, кадры (Посмотреть)
Изображение для Афера по-голливудски / The Comeback Trail (2020) BDRip 720p | iTunes (кликните для просмотра полного изображения)
Изображение для Афера по-голливудски / The Comeback Trail (2020) BDRip 720p | iTunes (кликните для просмотра полного изображения)
Изображение для Афера по-голливудски / The Comeback Trail (2020) BDRip 720p | iTunes (кликните для просмотра полного изображения)
Изображение для Афера по-голливудски / The Comeback Trail (2020) BDRip 720p | iTunes (кликните для просмотра полного изображения)
Информация о фильме
Название: Афера по-голливудски
Оригинальное название: The Comeback Trail
Год выхода: 2020
Жанр: Комедия, криминал
Режиссер: Джордж Галло
В ролях: Роберт Де Ниро, Эмиль Хирш, Морган Фриман, Томми Ли Джонс, Зак Брафф, Патрик Малдун, Эдди Гриффин, Винсент Спано, Джули Лотт, Брелим Дестани

Описание: Голливуд, 1974 год. Последний фильм продюсера Макса Барбера «Монахини-убийцы» не собрал ни цента и получил разгромную критику, а сам он теперь должен мафии. Есть желающие приобрести его лучший сценарий за кругленькую сумму, но Макс не готов расстаться со своим любимым детищем, поэтому решает получить страховку в случае смерти звезды фильма. Выбран сценарий с большим количеством трюков, и даже найдена нежелающая жить звезда вестернов на закате карьеры, осталось только организовать «несчастный случай».

image

Страна: США, Великобритания
Студия: Alla Prima Productions, Don Kee Productions, Ingenious Media, Living the Dream Films, Lucky 13 Productions, March On Productions, Rapid Farms Productions, Scoring Berlin, Sprockefeller Pictures, Storyboard Media
Продолжительность: 01:43:12
Перевод: Дублированный | iTunes

Файл
Формат: MKV
Качество: BDRip 720p
Видео: MPEG-4 AVC, 1280x536, 24fps, 5197 Kb/s
Аудио 1: 48KHz, AC3, 6 ch, 384 Kb/s | Русский
Аудио 2: 48KHz, AC3, 6 ch, 640 Kb/s | Английский
Субтитры: Русские (Forced, full), английские

MediaInfo
Format : Matroska
Format version : Version 4
File size : 4.49 GiB
Duration : 1 h 43 min
Overall bit rate : 6 224 kb/s
Movie name : The Comeback Trail 2020 from seleZen
Encoded date : UTC 2021-10-04 21:08:30
Writing application : mkvmerge v59.0.0 ('Shining Star') 64-bit
Writing library : libebml v1.4.2 + libmatroska v1.6.4

Video
ID : 1
Format : AVC
Format/Info : Advanced Video Codec
Format profile : [email protected]
Format settings : CABAC / 12 Ref Frames
Format settings, CABAC : Yes
Format settings, Reference frames : 12 frames
Codec ID : V_MPEG4/ISO/AVC
Duration : 1 h 43 min
Bit rate : 5 197 kb/s
Width : 1 280 pixels
Height : 536 pixels
Display aspect ratio : 2.40:1
Frame rate mode : Constant
Frame rate : 24.000 FPS
Color space : YUV
Chroma subsampling : 4:2:0
Bit depth : 8 bits
Scan type : Progressive
Bits/(Pixel*Frame) : 0.316
Stream size : 3.75 GiB (84%)
Title : MTeam
Writing library : x264 core 157 r2938 2b00a84 [email protected] Mod
Encoding settings : cabac=1 / ref=12 / deblock=1:-3:-3 / analyse=0x3:0x133 / me=umh / subme=10 / psy=1 / psy_rd=1.05:0.00 / mixed_ref=1 / me_range=32 / chroma_me=1 / trellis=2 / 8x8dct=1 / cqm=0 / deadzone=21,11 / fast_pskip=0 / chroma_qp_offset=-2 / threads=12 / lookahead_threads=2 / sliced_threads=0 / nr=0 / decimate=0 / interlaced=0 / bluray_compat=0 / constrained_intra=0 / bframes=8 / b_pyramid=2 / b_adapt=2 / b_bias=0 / direct=3 / weightb=1 / open_gop=0 / weightp=2 / keyint=250 / keyint_min=24 / scenecut=40 / intra_refresh=0 / rc_lookahead=250 / rc=crf / mbtree=0 / crf=16.8 / qcomp=0.60 / qpmin=0 / qpmax=69 / qpstep=4 / vbv_maxrate=62500 / vbv_bufsize=78125 / crf_max=0.0 / nal_hrd=none / filler=0 / ip_ratio=1.30 / pb_ratio=1.20 / aq=3:0.80
Language : English
Default : Yes
Forced : No
Color range : Limited
Color primaries : BT.709
Matrix coefficients : BT.709

Audio #1
ID : 2
Format : AC-3
Format/Info : Audio Coding 3
Commercial name : Dolby Digital
Codec ID : A_AC3
Duration : 1 h 43 min
Bit rate mode : Constant
Bit rate : 384 kb/s
Channel(s) : 6 channels
Channel layout : L R C LFE Ls Rs
Sampling rate : 48.0 kHz
Frame rate : 31.250 FPS (1536 SPF)
Compression mode : Lossy
Stream size : 283 MiB (6%)
Title : iTunes
Language : Russian
Service kind : Complete Main
Default : Yes
Forced : Yes

Audio #2
ID : 3
Format : AC-3
Format/Info : Audio Coding 3
Commercial name : Dolby Digital
Codec ID : A_AC3
Duration : 1 h 43 min
Bit rate mode : Constant
Bit rate : 640 kb/s
Channel(s) : 6 channels
Channel layout : L R C LFE Ls Rs
Sampling rate : 48.0 kHz
Frame rate : 31.250 FPS (1536 SPF)
Compression mode : Lossy
Stream size : 472 MiB (10%)
Title : Original
Language : English
Service kind : Complete Main
Default : No
Forced : No

Text #1
ID : 4
Format : UTF-8
Codec ID : S_TEXT/UTF8
Codec ID/Info : UTF-8 Plain Text
Duration : 1 h 39 min
Bit rate : 0 b/s
Count of elements : 13
Stream size : 647 Bytes (0%)
Title : Forced
Language : Russian
Default : Yes
Forced : Yes

Text #2
ID : 5
Format : UTF-8
Codec ID : S_TEXT/UTF8
Codec ID/Info : UTF-8 Plain Text
Duration : 1 h 39 min
Bit rate : 130 b/s
Count of elements : 1603
Stream size : 95.6 KiB (0%)
Title : Full
Language : Russian
Default : No
Forced : No

Text #3
ID : 6
Format : UTF-8
Codec ID : S_TEXT/UTF8
Codec ID/Info : UTF-8 Plain Text
Duration : 1 h 39 min
Bit rate : 80 b/s
Count of elements : 1469
Stream size : 59.0 KiB (0%)
Language : English
Default : No
Forced : No

Menu
00:00:00.000 : Chapter 01
00:11:32.708 : Chapter 02
00:26:09.167 : Chapter 03
00:37:21.667 : Chapter 04
00:47:58.625 : Chapter 05
00:59:08.417 : Chapter 06
01:13:35.083 : Chapter 07
01:24:19.375 : Chapter 08
01:35:26.042 : Chapter 09
РаздающийПоследний раз был здесь 1 неделю 2 дня 8 часов 13 минут 17 секунд  назад
Размер4.49 GB (4,817,537,131 байт)
Добавлен15 января 2022 в 12:01:51
Проголосуй за трекер

<< Предыдущий релиз  [из этой категории]   |   [из этой категории]  Следующий релиз >>
Все релизы   |   Все релизы этой категории
:: Список комментариев http://bigfangroup.org
Комментариев нет. Желаете добавить?


Обратная связь: [email protected]
© 2022 BigFANGroup 4.1. Powered by Kinokpk.com releaser 2.70 © 2008-2022.
Торрент трекер, форум трекера, скачать бесплатно фильмы, игры, видео, картинки и многое другое.