Главная Торренты Топ Раздач Форум Правила Чат XXX

Привет, гость

Логин:

Пароль:



Регистрация Восстановление пароля


Наши друзья

 Торренты

:: Детали релиза
Скачать
Скачать Ray_Donovan_The_Movie_2022_WEB-DL_1080p.torrent
Название
Скачать
Мультитрекерная раздача

Золотой торрент Рэй Донован: Фильм / Ray Donovan: The Movie (2022) WEB-DL 1080p | P | Novamedia

ТипДрама
Хэш релизаabbd3b45a5aa158accec04d2965e90b2ad3c95fd
Проверено
Этот торрент проверен Администрацией.
Изображение для Рэй Донован: Фильм / Ray Donovan: The Movie (2022) WEB-DL 1080p | P | Novamedia (кликните для просмотра полного изображения)
Скриншоты, кадры (Посмотреть)
Изображение для Рэй Донован: Фильм / Ray Donovan: The Movie (2022) WEB-DL 1080p | P | Novamedia (кликните для просмотра полного изображения)
Изображение для Рэй Донован: Фильм / Ray Donovan: The Movie (2022) WEB-DL 1080p | P | Novamedia (кликните для просмотра полного изображения)
Изображение для Рэй Донован: Фильм / Ray Donovan: The Movie (2022) WEB-DL 1080p | P | Novamedia (кликните для просмотра полного изображения)
Изображение для Рэй Донован: Фильм / Ray Donovan: The Movie (2022) WEB-DL 1080p | P | Novamedia (кликните для просмотра полного изображения)
Информация о фильме
Название: Рэй Донован: Фильм
Оригинальное название: Ray Donovan: The Movie
Год выпуска: 2022
Жанр: Драма
Режиссер: Дэвид Холландер
В ролях: Лив Шрайбер, Эдди Марсан, Дэш Майок, Пуч Холл, Кэррис Дорси, Кэтрин Менниг, Керри Кондон, Джон Войт, Билл Хек, Джош Хэмилтон, Грэм Роджерс, Алисса Диас, Дэвид Патрик Келли, Остин Хеберт, Кристофер Грэй

Описание: Продолжение сериала «Рэй Донован (2013)», который закрыли после седьмого сезона, оставив открытыми все сюжетные линии. Сюжет начнётся с того момента, на котором завершился сериал. Микки вынужден бежать, тогда как Рэй должен остановить его раньше, чем начнётся очередная бойня.

image

Выпущено: США / The Mark Gordon Company
Продолжительность: 01:39:47
Перевод: Профессиональный многоголосый | Novamedia по заказу Амедиатека

Файл
Фрмат: MKV
Качество: WEB-DL 1080p
Видео: MPEG-4 AVC, 8315 Кбит/с, 1920x1080
Аудио 1: AC3, 6 ch, 384 Кбит/с | Русский
Аудио 2: E-AC3, 6 ch, 640 Кбит/с | Английский
Субтитры: Английские

MediaInfo
Формат : Matroska
Версия формата : Version 4
Размер файла : 6,55 Гбайт
Продолжительность : 1 ч. 40 м.
Общий поток : 9 339 Кбит/сек
Название фильма : Ray.Donovan.The.Movie.2022.AMZN_от New-Team
Дата кодирования : UTC 2022-01-15 11:15:59
Программа кодирования : mkvmerge v59.0.0 ('Shining Star') 64-bit
Библиотека кодирования : libebml v1.4.2 + libmatroska v1.6.4

Видео
Идентификатор : 1
Формат : AVC
Формат/Информация : Advanced Video Codec
Профиль формата : [email protected]
Настройки формата : CABAC / 4 Ref Frames
Параметр CABAC формата : Да
Параметр RefFrames формата : 4 кадра
Идентификатор кодека : V_MPEG4/ISO/AVC
Продолжительность : 1 ч. 40 м.
Вид битрейта : Постоянный
Битрейт : 8 315 Кбит/сек
Номинальный битрейт : 10 000 Кбит/сек
Ширина : 1 920 пикселей
Высота : 1 080 пикселей
Соотношение сторон : 16:9
Режим частоты кадров : Постоянный
Частота кадров : 23,976 (24000/1001) кадра/сек
Цветовое пространство : YUV
Субдискретизация насыщенности : 4:2:0
Битовая глубина : 8 бит
Тип развёртки : Прогрессивная
Бит/(Пиксели*Кадры) : 0.167
Размер потока : 5,83 Гбайт (89%)
Default : Да
Forced : Нет
Цветовой диапазон : Limited
Основные цвета : BT.709
Характеристики трансфера : BT.709
Коэффициенты матрицы : BT.709

Аудио #1
Идентификатор : 2
Формат : AC-3
Формат/Информация : Audio Coding 3
Коммерческое название : Dolby Digital
Идентификатор кодека : A_AC3
Продолжительность : 1 ч. 39 м.
Вид битрейта : Постоянный
Битрейт : 384 Кбит/сек
Каналы : 6 каналов
Channel layout : L R C LFE Ls Rs
Частота : 48,0 КГц
Частота кадров : 31,250 кадров/сек (1536 SPF)
Метод сжатия : С потерями
Размер потока : 274 Мбайт (4%)
Заголовок : [MVO] Novamedia
Язык : Russian
Service kind : Complete Main
Default : Да
Forced : Нет

Аудио #2
Идентификатор : 3
Формат : E-AC-3
Формат/Информация : Enhanced AC-3
Коммерческое название : Dolby Digital Plus
Идентификатор кодека : A_EAC3
Продолжительность : 1 ч. 40 м.
Вид битрейта : Постоянный
Битрейт : 640 Кбит/сек
Каналы : 6 каналов
Channel layout : L R C LFE Ls Rs
Частота : 48,0 КГц
Частота кадров : 31,250 кадров/сек (1536 SPF)
Метод сжатия : С потерями
Размер потока : 459 Мбайт (7%)
Язык : English
Service kind : Complete Main
Default : Нет
Forced : Нет

Текст
Идентификатор : 4
Формат : UTF-8
Идентификатор кодека : S_TEXT/UTF8
Идентификатор кодека/Информация : UTF-8 Plain Text
Продолжительность : 1 ч. 34 м.
Битрейт : 33 бит/сек
Count of elements : 935
Размер потока : 23,4 Кбайт (0%)
Язык : English
Default : Нет
Forced : Нет
РаздающийПоследний раз был здесь 1 неделю 2 дня 7 часов 15 минут 45 секунд  назад
Размер6.55 GB (7,029,112,930 байт)
Добавлен15 января 2022 в 12:11:07
Проголосуй за трекер

<< Предыдущий релиз  [из этой категории]   |   [из этой категории]  Следующий релиз >>
Все релизы   |   Все релизы этой категории
:: Список комментариев http://bigfangroup.org
Комментариев нет. Желаете добавить?


Обратная связь: [email protected]
© 2022 BigFANGroup 4.1. Powered by Kinokpk.com releaser 2.70 © 2008-2022.
Торрент трекер, форум трекера, скачать бесплатно фильмы, игры, видео, картинки и многое другое.