Главная Торренты Топ Раздач Форум Правила Чат XXX

Привет, гость

Логин:

Пароль:



Регистрация Восстановление пароля


Наши друзья

 Торренты

:: Детали релиза
Скачать
Скачать Ghostbusters_Afterlife_2021_WEB-DL_1080p.torrent
Название
Скачать
Мультитрекерная раздача

Золотой торрент Охотники за привидениями: Наследники / Ghostbusters: Afterlife (2021) WEB-DL 1080p | D | Google Play

ТипФантастика
Хэш релиза623fdeca6463505c327ddc8140a80ad5ff13486b
Проверено
Этот торрент проверен Администрацией.
Изображение для Охотники за привидениями: Наследники / Ghostbusters: Afterlife (2021) WEB-DL 1080p | D | Google Play (кликните для просмотра полного изображения)
Скриншоты, кадры (Посмотреть)
Изображение для Охотники за привидениями: Наследники / Ghostbusters: Afterlife (2021) WEB-DL 1080p | D | Google Play (кликните для просмотра полного изображения)
Изображение для Охотники за привидениями: Наследники / Ghostbusters: Afterlife (2021) WEB-DL 1080p | D | Google Play (кликните для просмотра полного изображения)
Изображение для Охотники за привидениями: Наследники / Ghostbusters: Afterlife (2021) WEB-DL 1080p | D | Google Play (кликните для просмотра полного изображения)
Изображение для Охотники за привидениями: Наследники / Ghostbusters: Afterlife (2021) WEB-DL 1080p | D | Google Play (кликните для просмотра полного изображения)
Информация о фильме
Название: Охотники за привидениями: Наследники
Оригинальное название: Ghostbusters: Afterlife
Год выхода: 2021
Жанр: Фантастика, комедия, боевик, фэнтези
Режиссер: Джейсон Райтман
В ролях: Кэрри Кун, Пол Радд, Финн Вулфхард, Маккенна Грейс, Логан Ким, Селеста О’Коннор, Билл Мюррей, Дэн Эйкройд, Эрни Хадсон, Энни Поттс, Сигурни Уивер, Боб Гантон, Дж.К. Симмонс, Шон Сьюард, Билли Брайк

Описание: Мать-одиночка с двумя детьми-подростками селится на старой ферме в Оклахоме, полученной в наследство от отца, которого она не знала. Дети пытаются больше узнать о своем деде и находят автомобиль Ecto-1, принадлежавший знаменитым охотникам за привидениями.

image

Выпущено: США, Канада / Bron Studios, Columbia Pictures Corporation, Ghostcorps, Sony Pictures Entertainment (SPE), The Montecito Picture Company
Продолжительность: 02:04:22
Перевод: Дублированный | Google Play

Файл
Фрмат: MKV
Качество: WEB-DL 1080p
Видео: MPEG-4 AVC, 1920x800, 23.976fps, 6447 Kb/s
Аудио 1: 48KHz, AC3, 6 ch, 384 Kb/s | Русский
Аудио 2: 48KHz, E-AC3, 6 ch, 640 Kb/s | Английский
Субтитры: Английские

MediaInfo
Формат : Matroska
Версия формата : Version 4
Размер файла : 6,49 Гбайт
Продолжительность : 2 ч. 4 м.
Общий поток : 7 471 Кбит/сек
Название фильма : Ghostbusters.Afterlife.2021.1080p.AMZN_от New-Team
Дата кодирования : UTC 2022-01-04 09:06:33
Программа кодирования : mkvmerge v59.0.0 ('Shining Star') 64-bit
Библиотека кодирования : libebml v1.4.2 + libmatroska v1.6.4

Видео
Идентификатор : 1
Формат : AVC
Формат/Информация : Advanced Video Codec
Профиль формата : [email protected]
Настройки формата : CABAC / 4 Ref Frames
Параметр CABAC формата : Да
Параметр RefFrames формата : 4 кадра
Идентификатор кодека : V_MPEG4/ISO/AVC
Продолжительность : 2 ч. 4 м.
Вид битрейта : Постоянный
Битрейт : 6 447 Кбит/сек
Номинальный битрейт : 10 000 Кбит/сек
Ширина : 1 920 пикселей
Высота : 800 пикселей
Соотношение сторон : 2,40:1
Режим частоты кадров : Постоянный
Частота кадров : 23,976 (24000/1001) кадра/сек
Цветовое пространство : YUV
Субдискретизация насыщенности : 4:2:0
Битовая глубина : 8 бит
Тип развёртки : Прогрессивная
Бит/(Пиксели*Кадры) : 0.175
Размер потока : 5,60 Гбайт (86%)
Default : Да
Forced : Нет
Цветовой диапазон : Limited
Основные цвета : BT.709
Характеристики трансфера : BT.709
Коэффициенты матрицы : BT.709

Аудио #1
Идентификатор : 2
Формат : AC-3
Формат/Информация : Audio Coding 3
Коммерческое название : Dolby Digital
Идентификатор кодека : A_AC3
Продолжительность : 2 ч. 3 м.
Вид битрейта : Постоянный
Битрейт : 384 Кбит/сек
Каналы : 6 каналов
Channel layout : L R C LFE Ls Rs
Частота : 48,0 КГц
Частота кадров : 31,250 кадров/сек (1536 SPF)
Метод сжатия : С потерями
Размер потока : 340 Мбайт (5%)
Заголовок : [DUB] Line
Язык : Russian
Service kind : Complete Main
Default : Да
Forced : Нет

Аудио #2
Идентификатор : 3
Формат : E-AC-3
Формат/Информация : Enhanced AC-3
Коммерческое название : Dolby Digital Plus
Идентификатор кодека : A_EAC3
Продолжительность : 2 ч. 4 м.
Вид битрейта : Постоянный
Битрейт : 640 Кбит/сек
Каналы : 6 каналов
Channel layout : L R C LFE Ls Rs
Частота : 48,0 КГц
Частота кадров : 31,250 кадров/сек (1536 SPF)
Метод сжатия : С потерями
Размер потока : 569 Мбайт (9%)
Язык : English
Service kind : Complete Main
Default : Нет
Forced : Нет

Текст
Идентификатор : 4
Формат : UTF-8
Идентификатор кодека : S_TEXT/UTF8
Идентификатор кодека/Информация : UTF-8 Plain Text
Продолжительность : 1 ч. 58 м.
Битрейт : 44 бит/сек
Count of elements : 1347
Размер потока : 38,5 Кбайт (0%)
Язык : English
Default : Нет
Forced : Нет
РаздающийПоследний раз был здесь 1 неделю 2 дня 7 часов 25 минут 48 секунд  назад
Размер6.49 GB (6,969,442,194 байт)
Добавлен15 января 2022 в 13:32:07
Проголосуй за трекер

<< Предыдущий релиз  [из этой категории]   |   [из этой категории]  Следующий релиз >>
Все релизы   |   Все релизы этой категории
:: Список комментариев http://bigfangroup.org
Комментариев нет. Желаете добавить?


Обратная связь: [email protected]
© 2022 BigFANGroup 4.1. Powered by Kinokpk.com releaser 2.70 © 2008-2022.
Торрент трекер, форум трекера, скачать бесплатно фильмы, игры, видео, картинки и многое другое.