Главная Торренты Топ Раздач Форум Правила Чат XXX

Привет, гость

Логин:

Пароль:



Регистрация Восстановление пароля


Наши друзья

 Торренты

:: Детали релиза
Скачать
Скачать Ghosts.torrent
Название
Скачать
Мультитрекерная раздача

Золотой торрент Призраки / Ghosts [S01-03] (2019-2021) WEB-DL 1080p | Кураж-Бамбей

ТипСериалы
Хэш релиза554b4ec0caf2ee0a35bab23aaec8ca263ef097fb
Проверено
Этот торрент проверен Администрацией.
Изображение для Призраки / Ghosts [S01-03] (2019-2021) WEB-DL 1080p | Кураж-Бамбей (кликните для просмотра полного изображения)
Скриншоты, кадры (Посмотреть)
Изображение для Призраки / Ghosts [S01-03] (2019-2021) WEB-DL 1080p | Кураж-Бамбей (кликните для просмотра полного изображения)
Изображение для Призраки / Ghosts [S01-03] (2019-2021) WEB-DL 1080p | Кураж-Бамбей (кликните для просмотра полного изображения)
Изображение для Призраки / Ghosts [S01-03] (2019-2021) WEB-DL 1080p | Кураж-Бамбей (кликните для просмотра полного изображения)
Изображение для Призраки / Ghosts [S01-03] (2019-2021) WEB-DL 1080p | Кураж-Бамбей (кликните для просмотра полного изображения)
Информация о фильме
Название: Призраки
Оригинальное название: Ghosts
Год выхода: 2019-2021
Жанр: Фэнтези, комедия
Режиссер: Том Кингсли, Ник Коллетт
В ролях: Лолли Адефопе, Мэтью Бэйнтон, Саймон Фарнэби, Марта Хоу-Дуглас, Джим Хоуик, Лоуренс Рикард, Шарлотта Ричи, Kiell Smith-Bynoe, Бен Уиллбонд, Кэти Уикс

Описание: Фэнтезийный британский ситком в эксклюзивной озвучке по версии «Кураж-Бамбей». Молодожены Элисон и Майк находятся в активном поиске жилья, как вдруг в наследство девушке достается просторный особняк 99-летней дальней родственницы. Освоившись на новом месте, счастливая пара понимает, что дом буквально кишит призраками людей из разных эпох. С такими соседями точно не соскучишься!

image

Выпущено: Великобритания / Monumental Pictures
Продолжительность: 20 x ~ 00:30:00
Перевод: Профессиональный одноголосый | Кураж-Бамбей

Файл
Формат: MKV
Качество: WEB-DL 1080p
Видео: MPEG4-AVC, 1920x1080, 23.976fps, ~ 3000 Kb/s
Аудио: 48KHz, AC3, 192 Kb/s (2 ch)

Примечание: Без рекламы

MediaInfo
Формат : Matroska
Версия формата : Version 4
Размер файла : 656 Мбайт
Продолжительность : 29 м. 10 с.
Общий поток : 3 143 Кбит/сек
Дата кодирования : UTC 2020-09-20 13:30:34
Программа кодирования : mkvmerge v45.0.0 ('Heaven in Pennies') 64-bit
Библиотека кодирования : libebml v1.3.10 + libmatroska v1.5.2
Обложка : Yes
Attachments : cover.jpg

Видео
Идентификатор : 1
Формат : AVC
Формат/Информация : Advanced Video Codec
Профиль формата : [email protected]
Настройки формата : CABAC / 3 Ref Frames
Параметр CABAC формата : Да
Параметр RefFrames формата : 3 кадра
Идентификатор кодека : V_MPEG4/ISO/AVC
Продолжительность : 29 м. 10 с.
Битрейт : 2 948 Кбит/сек
Ширина : 1 920 пикселей
Высота : 1 080 пикселей
Соотношение сторон : 16:9
Режим частоты кадров : Постоянный
Частота кадров : 23,976 (24000/1001) кадра/сек
Частота кадров в оригинале : 25,000 кадров/сек
Цветовое пространство : YUV
Субдискретизация насыщенности : 4:2:0
Битовая глубина : 8 бит
Тип развёртки : Прогрессивная
Бит/(Пиксели*Кадры) : 0.059
Размер потока : 615 Мбайт (94%)
Язык : English
Default : Да
Forced : Нет

Аудио
Идентификатор : 2
Формат : AC-3
Формат/Информация : Audio Coding 3
Коммерческое название : Dolby Digital
Идентификатор кодека : A_AC3
Продолжительность : 29 м. 10 с.
Вид битрейта : Постоянный
Битрейт : 192 Кбит/сек
Каналы : 2 канала
Channel layout : L R
Частота : 48,0 КГц
Частота кадров : 31,250 кадров/сек (1536 SPF)
Метод сжатия : С потерями
Размер потока : 40,1 Мбайт (6%)
Заголовок : Кураж-Бамбей
Язык : Russian
Service kind : Complete Main
Default : Да
Forced : Нет
РаздающийПоследний раз был здесь 1 неделю 2 дня 6 часов 14 минут 22 секунды  назад
Размер12.24 GB (13,140,765,506 байт)
Добавлен15 января 2022 в 14:02:05
Файлов
[Посмотреть список]
20 файлов
Проголосуй за трекер

<< Предыдущий релиз  [из этой категории]   |   [из этой категории]  Следующий релиз >>
Все релизы   |   Все релизы этой категории
:: Список комментариев http://bigfangroup.org
Комментариев нет. Желаете добавить?


Обратная связь: [email protected]
© 2022 BigFANGroup 4.1. Powered by Kinokpk.com releaser 2.70 © 2008-2022.
Торрент трекер, форум трекера, скачать бесплатно фильмы, игры, видео, картинки и многое другое.