Главная Торренты Топ Раздач Форум Правила Чат XXX

Привет, гость

Логин:

Пароль:



Регистрация Восстановление пароля


Наши друзья

 Торренты

:: Детали релиза
Скачать
Скачать Christmas.in.Washington.2021.WEB-DL.1080p.torrent
Название
Скачать
Мультитрекерная раздача

Золотой торрент Рождество в Вашингтоне / Christmas in Washington (2021) WEB-DL 1080p | Кинопоиск HD

ТипМелодрама
Хэш релиза0ba60050ec05ff04045f090071626dc0ec012679
Проверено
Этот торрент проверен Администрацией.
Изображение для Рождество в Вашингтоне / Christmas in Washington (2021) WEB-DL 1080p | Кинопоиск HD (кликните для просмотра полного изображения)
Скриншоты, кадры (Посмотреть)
Изображение для Рождество в Вашингтоне / Christmas in Washington (2021) WEB-DL 1080p | Кинопоиск HD (кликните для просмотра полного изображения)
Изображение для Рождество в Вашингтоне / Christmas in Washington (2021) WEB-DL 1080p | Кинопоиск HD (кликните для просмотра полного изображения)
Изображение для Рождество в Вашингтоне / Christmas in Washington (2021) WEB-DL 1080p | Кинопоиск HD (кликните для просмотра полного изображения)
Изображение для Рождество в Вашингтоне / Christmas in Washington (2021) WEB-DL 1080p | Кинопоиск HD (кликните для просмотра полного изображения)
Информация о фильме
Название: Рождество в Вашингтоне
Оригинальное название: Christmas in Washington
Год выпуска: 2021
Жанр: Мелодрама
Режиссер: Адриан Лэнгли
В ролях: Дэймон Рунян, Штеффи ДиДоменикантонио, Мадлен Леон, Натали Лисинска, Кэтлин Лэски, Тесса Козма, Ннека Эллиот, Алекс Гарроч, Джилл Фраппье, Джеймс Колл

Описание: Интерьерный дизайнер Эмили Барнс давно хотела расширить свой бизнес, но по разным причинам не решалась. Пока Эмили готовится к этому шагу, она получает задание украсить посольство в Вашингтоне к Рождеству. Посол — красивый, непредсказуемый и высокомерный — совсем не любит рождественскую суету. Получится ли у Эмили устроить настоящее Рождество в этом уголке Вашингтона?

image

Выпущено: Канада / CME Autum Productions, Champlain Media
Продолжительность: 01:25:45
Перевод: Профессиональный многоголосый | Кинопоиск HD

Файл
Формат: MKV
Качество: WEB-DL 1080p
Видео: MPEG-4 AVC, 1920x1080, 24fps, 6000 Kb/s
Аудио : 48KHz, AC3, 192 Kb/s (2 ch)

MediaInfo
Format : Matroska
Format version : Version 4
File size : 3.69 GiB
Duration : 1 h 25 min
Overall bit rate : 6 168 kb/s
Movie name : Christmas in Washington 2021 from ExKinoRay
Encoded date : UTC 2021-12-20 19:45:51
Writing application : mkvmerge v7.3.0 ('Nouages') 64bit built on Oct 22 2014 18:53:34
Writing library : libebml v1.3.0 + libmatroska v1.4.1

Video
ID : 1
Format : AVC
Format/Info : Advanced Video Codec
Format profile : [email protected]
Format settings : CABAC / 4 Ref Frames
Format settings, CABAC : Yes
Format settings, Reference : 4 frames
Codec ID : V_MPEG4/ISO/AVC
Duration : 1 h 25 min
Bit rate : 6 000 kb/s
Width : 1 920 pixels
Height : 1 080 pixels
Display aspect ratio : 16:9
Frame rate mode : Constant
Frame rate : 25.000 FPS
Color space : YUV
Chroma subsampling : 4:2:0
Bit depth : 8 bits
Scan type : Progressive
Bits/(Pixel*Frame) : 0.116
Stream size : 3.58 GiB (97%)
Writing library : x264 core 157
Encoding settings : cabac=1 / ref=4 / deblock=1:0:0 / analyse=0x3:0x133 / me=umh / subme=10 / psy=1 / psy_rd=1.00:0.00 / mixed_ref=1 / me_range=24 / chroma_me=1 / trellis=2 / 8x8dct=1 / cqm=0 / deadzone=21,11 / fast_pskip=1 / chroma_qp_offset=-2 / threads=34 / lookahead_threads=5 / sliced_threads=0 / nr=0 / decimate=1 / interlaced=0 / bluray_compat=0 / constrained_intra=0 / bframes=8 / b_pyramid=2 / b_adapt=2 / b_bias=0 / direct=3 / weightb=1 / open_gop=0 / weightp=2 / keyint=200 / keyint_min=100 / scenecut=40 / intra_refresh=0 / rc_lookahead=60 / rc=2pass / mbtree=1 / bitrate=6000 / ratetol=1.0 / qcomp=0.60 / qpmin=0 / qpmax=69 / qpstep=4 / cplxblur=20.0 / qblur=0.5 / vbv_maxrate=6600 / vbv_bufsize=9000 / nal_hrd=none / filler=0 / ip_ratio=1.40 / aq=1:1.00
Language : English
Default : Yes
Forced : No

Audio
ID : 2
Format : AC-3
Format/Info : Audio Coding 3
Commercial name : Dolby Digital
Codec ID : A_AC3
Duration : 1 h 25 min
Bit rate mode : Constant
Bit rate : 192 kb/s
Channel(s) : 2 channels
Channel layout : L R
Sampling rate : 48.0 kHz
Frame rate : 31.250 FPS (1536 SPF)
Compression mode : Lossy
Stream size : 118 MiB (3%)
Language : Russian
Service kind : Complete Main
Default : Yes
Forced : Yes
РаздающийПоследний раз был здесь 3 дня 22 часа 21 минуту 57 секунд  назад
Размер3.69 GB (3,966,845,884 байт)
Добавлен15 января 2022 в 14:54:29
Проголосуй за трекер

<< Предыдущий релиз  [из этой категории]   |   [из этой категории]  Следующий релиз >>
Все релизы   |   Все релизы этой категории
:: Список комментариев http://bigfangroup.org
Комментариев нет. Желаете добавить?


Обратная связь: [email protected]
© 2022 BigFANGroup 4.1. Powered by Kinokpk.com releaser 2.70 © 2008-2022.
Торрент трекер, форум трекера, скачать бесплатно фильмы, игры, видео, картинки и многое другое.