Главная Торренты Топ Раздач Форум Правила Чат XXX

Привет, гость

Логин:

Пароль:



Регистрация Восстановление пароля

 Торренты



:: Детали релиза
Скачать
Скачать Star Wars Visions_(s01)_HDr_1080p.torrent
Название
Скачать
Мультитрекерная раздача

Золотой торрент Звездные войны: Видения / Star Wars: Visions [S01] (2021) WEB-DL 1080p | HDrezka Studio

ТипАнимация
Хэш релизаa78e11fa7eba1fa56cda130ff5a2f85b441095f0
Проверено
Этот торрент проверен Администрацией.
Изображение для Звездные войны: Видения / Star Wars: Visions [S01] (2021) WEB-DL 1080p | HDrezka Studio (кликните для просмотра полного изображения)
Скриншоты, кадры (Посмотреть)
Изображение для Звездные войны: Видения / Star Wars: Visions [S01] (2021) WEB-DL 1080p | HDrezka Studio (кликните для просмотра полного изображения)
Изображение для Звездные войны: Видения / Star Wars: Visions [S01] (2021) WEB-DL 1080p | HDrezka Studio (кликните для просмотра полного изображения)
Изображение для Звездные войны: Видения / Star Wars: Visions [S01] (2021) WEB-DL 1080p | HDrezka Studio (кликните для просмотра полного изображения)
Изображение для Звездные войны: Видения / Star Wars: Visions [S01] (2021) WEB-DL 1080p | HDrezka Studio (кликните для просмотра полного изображения)
Информация о фильме
Название: Звездные войны: Видения
Оригинальное название: Star Wars: Visions
Год выпуска: 2021
Жанр: аниме, мультфильм, фантастика, боевик, фэнтези
Режиссер: Чхве Ын-ён, Эйбел Гонгора, Хитоси Хага
В ролях: Эндрю Кисино, Джейден Уолдман, Элисон Бри, Анна Кэткарт, Кайл Чандлер, Грег Чун, Джейми Чон, Роми Дамс, Джордан Фишер, Карен Фукухара

Описание: Не секрет, что создатель «Звездных войн» Джордж Лукас черпал вдохновение из разных источников. История о дружбе, джедаях и Силе создавалась под впечатлением от артуровских легенд, комиксов «Флэш Гордон», романа «Дюна», ленты «Метрополис» и многих других шедевров искусства. Особый вклад в успех космической саги внесла японская культура. Критики видят четкие параллели между оригинальной трилогией и фильмами Акиры Куросавы. Джедаи похожи на самураев, C-3PO и R2-D2 списаны с героев «Трех негодяев в скрытой крепости», а некоторые сюжетные повороты взяты из «Телохранителя». Лукас никогда не скрывал любви к восточной культуре и творчеству Куросавы. Недаром он звал на роль Оби-Вана актера Тосиро Мифунэ, считавшегося счастливым талисманом Акиры. Компании Disney и Lucasfilm решили почтить вклад Страны восходящего солнца в развитие саги и объединились с восемью японскими анимационными студиями в работе над проектом «Звездные войны: Видения». Мультипликационная вселенная Star Wars всегда радовала интересными и разнообразными сериалами. Чтобы завоевать мир аниме, владельцы франшизы позвали лучших экспертов данного жанра. Художники, режиссеры и сценаристы справились с нужной задачей: мультик вызвал огромный ажиотаж и получил отличные отзывы в прессе.

«Видения» созданы по принципу антологии, когда каждая серия является отдельной и полностью завершенной историей. Зрителей ждет увлекательное путешествие сквозь пространство и время. В одной серии мы посетим планету, напоминающую феодальную Японию. В центре внимания — благородный ронин, вставший на защиту крохотной деревеньки. Другой эпизод расскажет о последствиях Приказа 66 и роботе T0-B1, который отправится на поиски кайбер-кристалла, чтобы создать лазерный меч и присоединиться к остаткам джедаев. Зрители также узнают, что произойдет после событий третьей трилогии, когда история Скайуокеров превратится в древнюю легенду. Что же касается старожилов франшизы, то их представят криминальный король Джабба и охотник за головами Боба Фетт. Новый стиль анимации, интригующие сюжеты и тонкие переплетения с японской культурой делают «Видения» одним из ярчайших мультипликационных проектов в истории «Звездных войн», который привлечет зрителей всех возрастов и художественных вкусов.

image

Выпущено: Япония, США / Lucasfilm, Lucasfilm Animation, Geno Studio
Продолжительность: 9 x ~ 00:15:00
Перевод: Профессиональный многоголосый | HDrezka Studio

Файл
Формат: MKV
Качество: WEB-DL 1080p
Видео: 1920x1080 at 24.000 fps, MPEG4-AVC, ~ 5200-7700 kbps avg
Аудио 1 | Russian: 48 kHz, AC3, 3/2 (L,C,R,l,r) + LFE ch, ~256 kbps avg
Аудио 2 | Japanese: 48 kHz, E-AC3, 3/2 (L,C,R,l,r) + LFE ch, ~256 kbps avg
Аудио 3 | English: 48 kHz, E-AC3, 3/2 (L,C,R,l,r) + LFE ch, ~256 kbps avg
Субтитры: Russian (Forced), English (Full, SDH) и другие.

Примечание: Без рекламы

MediaInfo
Формат : Matroska
Версия формата : Version 4
Размер файла : 794 Мбайт
Продолжительность : 13 м. 1 с.
Режим общего битрейта : Переменный
Общий поток : 8 525 Кбит/сек
Название фильма : Star Wars: Visions S01E01 | [email protected]
Дата кодирования : UTC 2021-09-23 04:49:54
Программа кодирования : mkvmerge v61.0.0 ('So') 64-bit
Библиотека кодирования : libebml v1.4.2 + libmatroska v1.6.4

Видео
Идентификатор : 1
Формат : AVC
Формат/Информация : Advanced Video Codec
Профиль формата : [email protected]
Настройки формата : CABAC / 4 Ref Frames
Параметр CABAC формата : Да
Параметр RefFrames формата : 4 кадра
Идентификатор кодека : V_MPEG4/ISO/AVC
Продолжительность : 13 м. 1 с.
Вид битрейта : Переменный
Битрейт : 7 754 Кбит/сек
Максимальный битрейт : 12,7 Мбит/сек
Ширина : 1 920 пикселей
Высота : 1 080 пикселей
Соотношение сторон : 16:9
Режим частоты кадров : Постоянный
Частота кадров : 24,000 кадра/сек
Цветовое пространство : YUV
Субдискретизация насыщенности : 4:2:0
Битовая глубина : 8 бит
Тип развёртки : Прогрессивная
Бит/(Пиксели*Кадры) : 0.156
Размер потока : 722 Мбайт (91%)
Язык : English
Default : Да
Forced : Нет
Цветовой диапазон : Limited
Основные цвета : BT.709
Характеристики трансфера : BT.709
Коэффициенты матрицы : BT.709

Аудио #1
Идентификатор : 2
Формат : AC-3
Формат/Информация : Audio Coding 3
Коммерческое название : Dolby Digital
Идентификатор кодека : A_AC3
Продолжительность : 13 м. 1 с.
Вид битрейта : Постоянный
Битрейт : 256 Кбит/сек
Каналы : 6 каналов
Channel layout : L R C LFE Ls Rs
Частота : 48,0 КГц
Частота кадров : 31,250 кадров/сек (1536 SPF)
Метод сжатия : С потерями
Размер потока : 23,8 Мбайт (3%)
Язык : Russian
Service kind : Complete Main
Default : Да
Forced : Нет

Аудио #2
Идентификатор : 3
Формат : E-AC-3
Формат/Информация : Enhanced AC-3
Коммерческое название : Dolby Digital Plus
Идентификатор кодека : A_EAC3
Продолжительность : 13 м. 1 с.
Вид битрейта : Постоянный
Битрейт : 256 Кбит/сек
Каналы : 6 каналов
Channel layout : L R C LFE Ls Rs
Частота : 48,0 КГц
Частота кадров : 31,250 кадров/сек (1536 SPF)
Метод сжатия : С потерями
Размер потока : 23,8 Мбайт (3%)
Язык : Japanese
Service kind : Complete Main
Default : Нет
Forced : Нет

Аудио #3
Идентификатор : 4
Формат : E-AC-3
Формат/Информация : Enhanced AC-3
Коммерческое название : Dolby Digital Plus
Идентификатор кодека : A_EAC3
Продолжительность : 13 м. 1 с.
Вид битрейта : Постоянный
Битрейт : 256 Кбит/сек
Каналы : 6 каналов
Channel layout : L R C LFE Ls Rs
Частота : 48,0 КГц
Частота кадров : 31,250 кадров/сек (1536 SPF)
Метод сжатия : С потерями
Размер потока : 23,8 Мбайт (3%)
Язык : English
Service kind : Complete Main
Default : Нет
Forced : Нет

Текст #1
Идентификатор : 5
Формат : UTF-8
Идентификатор кодека : S_TEXT/UTF8
Идентификатор кодека/Информация : UTF-8 Plain Text
Продолжительность : 12 м. 18 с.
Битрейт : 1 бит/сек
Count of elements : 4
Размер потока : 179 байт (0%)
Заголовок : Forced
Язык : Russian
Default : Да
Forced : Нет

Текст #2
Идентификатор : 6
Формат : UTF-8
Идентификатор кодека : S_TEXT/UTF8
Идентификатор кодека/Информация : UTF-8 Plain Text
Продолжительность : 10 м. 44 с.
Битрейт : 29 бит/сек
Count of elements : 76
Размер потока : 2,32 Кбайт (0%)
Язык : English
Default : Нет
Forced : Нет

Текст #3
Идентификатор : 7
Формат : UTF-8
Идентификатор кодека : S_TEXT/UTF8
Идентификатор кодека/Информация : UTF-8 Plain Text
Продолжительность : 12 м. 17 с.
Битрейт : 39 бит/сек
Count of elements : 141
Размер потока : 3,57 Кбайт (0%)
Заголовок : SDH
Язык : English
Default : Нет
Forced : Нет

Текст #4
Идентификатор : 8
Формат : UTF-8
Идентификатор кодека : S_TEXT/UTF8
Идентификатор кодека/Информация : UTF-8 Plain Text
Продолжительность : 12 м. 37 с.
Битрейт : 23 бит/сек
Count of elements : 74
Размер потока : 2,21 Кбайт (0%)
Язык : Danish
Default : Нет
Forced : Нет

Текст #5
Идентификатор : 9
Формат : UTF-8
Идентификатор кодека : S_TEXT/UTF8
Идентификатор кодека/Информация : UTF-8 Plain Text
Продолжительность : 12 м. 44 с.
Битрейт : 25 бит/сек
Count of elements : 75
Размер потока : 2,36 Кбайт (0%)
Язык : German
Default : Нет
Forced : Нет

Текст #6
Идентификатор : 10
Формат : UTF-8
Идентификатор кодека : S_TEXT/UTF8
Идентификатор кодека/Информация : UTF-8 Plain Text
Продолжительность : 12 м. 37 с.
Битрейт : 23 бит/сек
Count of elements : 72
Размер потока : 2,20 Кбайт (0%)
Заголовок : Latin American
Язык : Spanish
Default : Нет
Forced : Нет

Текст #7
Идентификатор : 11
Формат : UTF-8
Идентификатор кодека : S_TEXT/UTF8
Идентификатор кодека/Информация : UTF-8 Plain Text
Продолжительность : 11 м. 30 с.
Битрейт : 27 бит/сек
Count of elements : 71
Размер потока : 2,35 Кбайт (0%)
Язык : Spanish
Default : Нет
Forced : Нет

Текст #8
Идентификатор : 12
Формат : UTF-8
Идентификатор кодека : S_TEXT/UTF8
Идентификатор кодека/Информация : UTF-8 Plain Text
Продолжительность : 12 м. 37 с.
Битрейт : 22 бит/сек
Count of elements : 72
Размер потока : 2,12 Кбайт (0%)
Язык : Finnish
Default : Нет
Forced : Нет

Текст #9
Идентификатор : 13
Формат : UTF-8
Идентификатор кодека : S_TEXT/UTF8
Идентификатор кодека/Информация : UTF-8 Plain Text
Продолжительность : 12 м. 37 с.
Битрейт : 25 бит/сек
Count of elements : 74
Размер потока : 2,33 Кбайт (0%)
Язык : French
Default : Нет
Forced : Нет

Текст #10
Идентификатор : 14
Формат : UTF-8
Идентификатор кодека : S_TEXT/UTF8
Идентификатор кодека/Информация : UTF-8 Plain Text
Продолжительность : 12 м. 37 с.
Битрейт : 23 бит/сек
Count of elements : 72
Размер потока : 2,17 Кбайт (0%)
Язык : Italian
Default : Нет
Forced : Нет

Текст #11
Идентификатор : 15
Формат : UTF-8
Идентификатор кодека : S_TEXT/UTF8
Идентификатор кодека/Информация : UTF-8 Plain Text
Продолжительность : 12 м. 44 с.
Битрейт : 25 бит/сек
Count of elements : 75
Размер потока : 2,42 Кбайт (0%)
Язык : Korean
Default : Нет
Forced : Нет

Текст #12
Идентификатор : 16
Формат : UTF-8
Идентификатор кодека : S_TEXT/UTF8
Идентификатор кодека/Информация : UTF-8 Plain Text
Продолжительность : 11 м. 30 с.
Битрейт : 26 бит/сек
Count of elements : 73
Размер потока : 2,21 Кбайт (0%)
Язык : Norwegian Bokmal
Default : Нет
Forced : Нет

Текст #13
Идентификатор : 17
Формат : UTF-8
Идентификатор кодека : S_TEXT/UTF8
Идентификатор кодека/Информация : UTF-8 Plain Text
Продолжительность : 11 м. 30 с.
Битрейт : 26 бит/сек
Count of elements : 70
Размер потока : 2,22 Кбайт (0%)
Язык : Dutch
Default : Нет
Forced : Нет

Текст #14
Идентификатор : 18
Формат : UTF-8
Идентификатор кодека : S_TEXT/UTF8
Идентификатор кодека/Информация : UTF-8 Plain Text
Продолжительность : 12 м. 44 с.
Битрейт : 22 бит/сек
Count of elements : 75
Размер потока : 2,11 Кбайт (0%)
Язык : Polish
Default : Нет
Forced : Нет

Текст #15
Идентификатор : 19
Формат : UTF-8
Идентификатор кодека : S_TEXT/UTF8
Идентификатор кодека/Информация : UTF-8 Plain Text
Продолжительность : 12 м. 37 с.
Битрейт : 24 бит/сек
Count of elements : 73
Размер потока : 2,22 Кбайт (0%)
Заголовок : Brazilian
Язык : Portuguese
Default : Нет
Forced : Нет

Текст #16
Идентификатор : 20
Формат : UTF-8
Идентификатор кодека : S_TEXT/UTF8
Идентификатор кодека/Информация : UTF-8 Plain Text
Продолжительность : 12 м. 44 с.
Битрейт : 23 бит/сек
Count of elements : 74
Размер потока : 2,23 Кбайт (0%)
Язык : Portuguese
Default : Нет
Forced : Нет

Текст #17
Идентификатор : 21
Формат : UTF-8
Идентификатор кодека : S_TEXT/UTF8
Идентификатор кодека/Информация : UTF-8 Plain Text
Продолжительность : 12 м. 37 с.
Битрейт : 25 бит/сек
Count of elements : 74
Размер потока : 2,34 Кбайт (0%)
Язык : Swedish
Default : Нет
Forced : Нет

Текст #18
Идентификатор : 22
Формат : UTF-8
Идентификатор кодека : S_TEXT/UTF8
Идентификатор кодека/Информация : UTF-8 Plain Text
Продолжительность : 12 м. 44 с.
Битрейт : 19 бит/сек
Count of elements : 75
Размер потока : 1,79 Кбайт (0%)
Заголовок : Simplified
Язык : Chinese
Default : Нет
Forced : Нет

Текст #19
Идентификатор : 23
Формат : UTF-8
Идентификатор кодека : S_TEXT/UTF8
Идентификатор кодека/Информация : UTF-8 Plain Text
Продолжительность : 12 м. 44 с.
Битрейт : 21 бит/сек
Count of elements : 75
Размер потока : 2,01 Кбайт (0%)
Заголовок : Traditional (Hong Kong)
Язык : Chinese
Default : Нет
Forced : Нет

Меню
00:00:11.833 : Intro
00:00:19.375 : Scene 1
00:12:49.083 : Credits
РаздающийПоследний раз был здесь 3 месяца 3 недели 6 дней 23 часа 13 минут 15 секунд  назад
Размер6.82 GB (7,322,245,828 байт)
Добавлен16 января 2022 в 23:33:37
Файлов
[Посмотреть список]
9 файлов
Проголосуй за трекер

<< Предыдущий релиз  [из этой категории]   |   [из этой категории]  Следующий релиз >>
Все релизы   |   Все релизы этой категории
:: Список комментариев http://bigfangroup.org
Комментариев нет. Желаете добавить?








Обратная связь: [email protected]
© 2022 BigFANGroup 4.1. Powered by Kinokpk.com releaser 2.70 © 2008-2022.
Торрент трекер, форум трекера, скачать бесплатно фильмы, игры, видео, картинки и многое другое.