Главная Торренты Топ Раздач Форум Правила Чат XXX

Привет, гость

Логин:

Пароль:



Регистрация Восстановление пароля

 Торренты



:: Детали релиза
Скачать
Скачать Candyman.2021.BDRip.720p.torrent
Название
Скачать
Мультитрекерная раздача

Золотой торрент Кэндимен / Candyman (2021) BDRip 720p | iTunes

ТипУжасы
Хэш релиза3759866d820b2accdf7a6cf6d3ab123ead860762
Проверено
Этот торрент проверен Администрацией.
Изображение для Кэндимен / Candyman (2021) BDRip 720p | iTunes (кликните для просмотра полного изображения)
Скриншоты, кадры (Посмотреть)
Изображение для Кэндимен / Candyman (2021) BDRip 720p | iTunes (кликните для просмотра полного изображения)
Изображение для Кэндимен / Candyman (2021) BDRip 720p | iTunes (кликните для просмотра полного изображения)
Изображение для Кэндимен / Candyman (2021) BDRip 720p | iTunes (кликните для просмотра полного изображения)
Изображение для Кэндимен / Candyman (2021) BDRip 720p | iTunes (кликните для просмотра полного изображения)
Информация о фильме
Название: Кэндимен
Оригинальное название: Candyman
Год выхода: 2021
Жанр: Ужасы
Режиссер: Ниа ДаКоста
В ролях: Яхья Абдул-Матин II, Тейона Паррис, Нэйтан Стюарт-Джарретт, Колман Доминго, Кайл Каминский, Ванесса Уильямс, Ребекка Спенс, Карл Клемонс-Хопкинс, Брайан Кинг, Мириам Мосс

Описание: В поисках идей молодой художник из Чикаго Энтони Маккой решает изучить историю района, куда он недавно переехал вместе со своей подругой. Исследование знакомит его с пожилым местным жителем, который рассказывает парню о печально известном маньяке Кэндимене, убивающего тех, кто перед зеркалом пять раз произнесёт его имя. Вдохновившись этой историей, Энтони создаёт экспонат для выставки, где после закрытия происходит двойное убийство.

image

Страна: США, Канада, Австралия
Студия: Bron Studios, Creative Wealth Media Finance, Metro-Goldwyn-Mayer (MGM), Monkeypaw Prodctions, Universal Pictures
Продолжительность: 01:31:01
Перевод: Дублированный | iTunes

Файл
Формат: MKV
Качество: BDRip 720p
Видео: H.264, 1280x536, 23.976fps, 3772 Kb/s
Аудио 1: 48KHz, AC3, 6 ch, 384 Kb/s | Русский
Аудио 2: 48KHz, AC3, 6 ch, 640 Kb/s | Английский
Субтитры: Русские (Forced, full), английские

MediaInfo
Format : Matroska
Format version : Version 4
File size : 3.05 GiB
Duration : 1 h 31 min
Overall bit rate : 4 794 kb/s
Movie name : Candyman 2021 from seleZen
Encoded date : UTC 2021-11-05 20:09:57
Writing application : mkvmerge v59.0.0 ('Shining Star') 64-bit
Writing library : libebml v1.4.2 + libmatroska v1.6.4

Video
ID : 1
Format : AVC
Format/Info : Advanced Video Codec
Format profile : [email protected]
Format settings : CABAC / 12 Ref Frames
Format settings, CABAC : Yes
Format settings, Reference frames : 12 frames
Codec ID : V_MPEG4/ISO/AVC
Duration : 1 h 31 min
Bit rate : 3 772 kb/s
Width : 1 280 pixels
Height : 536 pixels
Display aspect ratio : 2.40:1
Frame rate mode : Constant
Frame rate : 23.976 (24000/1001) FPS
Color space : YUV
Chroma subsampling : 4:2:0
Bit depth : 8 bits
Scan type : Progressive
Bits/(Pixel*Frame) : 0.229
Stream size : 2.40 GiB (79%)
Title : MTeam
Writing library : x264 core 157 r2938 2b00a84 [email protected] Mod
Encoding settings : cabac=1 / ref=12 / deblock=1:-3:-3 / analyse=0x3:0x133 / me=umh / subme=10 / psy=1 / psy_rd=1.05:0.00 / mixed_ref=1 / me_range=32 / chroma_me=1 / trellis=2 / 8x8dct=1 / cqm=0 / deadzone=21,11 / fast_pskip=0 / chroma_qp_offset=-2 / threads=12 / lookahead_threads=2 / sliced_threads=0 / nr=0 / decimate=0 / interlaced=0 / bluray_compat=0 / constrained_intra=0 / bframes=8 / b_pyramid=2 / b_adapt=2 / b_bias=0 / direct=3 / weightb=1 / open_gop=0 / weightp=2 / keyint=250 / keyint_min=24 / scenecut=40 / intra_refresh=0 / rc_lookahead=250 / rc=crf / mbtree=0 / crf=16.8 / qcomp=0.60 / qpmin=0 / qpmax=69 / qpstep=4 / vbv_maxrate=62500 / vbv_bufsize=78125 / crf_max=0.0 / nal_hrd=none / filler=0 / ip_ratio=1.30 / pb_ratio=1.20 / aq=3:0.80
Language : English
Default : Yes
Forced : No
Color range : Limited
Color primaries : BT.709
Matrix coefficients : BT.709

Audio #1
ID : 2
Format : AC-3
Format/Info : Audio Coding 3
Commercial name : Dolby Digital
Codec ID : A_AC3
Duration : 1 h 31 min
Bit rate mode : Constant
Bit rate : 384 kb/s
Channel(s) : 6 channels
Channel layout : L R C LFE Ls Rs
Sampling rate : 48.0 kHz
Frame rate : 31.250 FPS (1536 SPF)
Compression mode : Lossy
Stream size : 250 MiB (8%)
Title : iTunes
Language : Russian
Service kind : Complete Main
Default : Yes
Forced : Yes

Audio #2
ID : 3
Format : AC-3
Format/Info : Audio Coding 3
Commercial name : Dolby Digital
Codec ID : A_AC3
Duration : 1 h 31 min
Bit rate mode : Constant
Bit rate : 640 kb/s
Channel(s) : 6 channels
Channel layout : L R C LFE Ls Rs
Sampling rate : 48.0 kHz
Frame rate : 31.250 FPS (1536 SPF)
Compression mode : Lossy
Stream size : 417 MiB (13%)
Title : Original
Language : English
Service kind : Complete Main
Default : No
Forced : No

Text #1
ID : 4
Format : UTF-8
Codec ID : S_TEXT/UTF8
Codec ID/Info : UTF-8 Plain Text
Duration : 1 h 28 min
Bit rate : 0 b/s
Count of elements : 11
Stream size : 573 Bytes (0%)
Title : Forced
Language : Russian
Default : Yes
Forced : Yes

Text #2
ID : 5
Format : UTF-8
Codec ID : S_TEXT/UTF8
Codec ID/Info : UTF-8 Plain Text
Duration : 1 h 24 min
Bit rate : 77 b/s
Count of elements : 1011
Stream size : 48.4 KiB (0%)
Title : Full
Language : Russian
Default : No
Forced : No

Text #3
ID : 6
Format : UTF-8
Codec ID : S_TEXT/UTF8
Codec ID/Info : UTF-8 Plain Text
Duration : 1 h 26 min
Bit rate : 56 b/s
Count of elements : 1255
Stream size : 35.8 KiB (0%)
Title : SDH
Language : English
Default : No
Forced : No

Menu
00:00:00.000 : Chapter 01
00:06:34.269 : Chapter 02
00:12:45.515 : Chapter 03
00:18:00.621 : Chapter 04
00:21:03.888 : Chapter 05
00:24:59.915 : Chapter 06
00:30:13.311 : Chapter 07
00:34:37.117 : Chapter 08
00:38:23.760 : Chapter 09
00:41:22.772 : Chapter 10
00:46:14.480 : Chapter 11
00:49:43.647 : Chapter 12
00:53:53.313 : Chapter 13
00:57:36.870 : Chapter 14
01:00:56.027 : Chapter 15
01:03:32.434 : Chapter 16
01:08:56.132 : Chapter 17
01:13:33.034 : Chapter 18
01:20:20.399 : Chapter 19
01:26:08.330 : Chapter 20
РаздающийПоследний раз был здесь 3 месяца 3 недели 5 дней 10 часов 5 минут 54 секунды  назад
Размер3.05 GB (3,275,489,177 байт)
Добавлен31 января 2022 в 12:27:35
Проголосуй за трекер

<< Предыдущий релиз  [из этой категории]   |   [из этой категории]  Следующий релиз >>
Все релизы   |   Все релизы этой категории
:: Список комментариев http://bigfangroup.org
Комментариев нет. Желаете добавить?








Обратная связь: [email protected]
© 2022 BigFANGroup 4.1. Powered by Kinokpk.com releaser 2.70 © 2008-2022.
Торрент трекер, форум трекера, скачать бесплатно фильмы, игры, видео, картинки и многое другое.