Главная Торренты Топ Раздач Форум Правила Чат XXX

Привет, гость

Логин:

Пароль:



Регистрация Восстановление пароля


Наши друзья

 Торренты

:: Детали релиза
Скачать
Скачать Irreversible_Inversion Integrale.2020.BDRip.1080p.W.mkv.torrent
Название
Скачать
Мультитрекерная раздача

Золотой торрент Необратимость. Полная инверсия / Irreversible - Inversion Integrale (2020) BDRip 1080p | P2

ТипТриллер
Хэш релиза0b89156709568586de27867e96c8b0faccb97b00
Проверено
Этот торрент проверен Администрацией.
Изображение для Необратимость. Полная инверсия / Irreversible - Inversion Integrale (2020) BDRip 1080p | P2 (кликните для просмотра полного изображения)
Скриншоты, кадры (Посмотреть)
Изображение для Необратимость. Полная инверсия / Irreversible - Inversion Integrale (2020) BDRip 1080p | P2 (кликните для просмотра полного изображения)
Изображение для Необратимость. Полная инверсия / Irreversible - Inversion Integrale (2020) BDRip 1080p | P2 (кликните для просмотра полного изображения)
Изображение для Необратимость. Полная инверсия / Irreversible - Inversion Integrale (2020) BDRip 1080p | P2 (кликните для просмотра полного изображения)
Изображение для Необратимость. Полная инверсия / Irreversible - Inversion Integrale (2020) BDRip 1080p | P2 (кликните для просмотра полного изображения)
Информация о фильме
Название: Необратимость. Полная инверсия
Оригинальное название: Irreversible - Inversion Integrale
Год выхода: 2020
Жанр: Триллер, драма, криминал, детектив
Режиссер: Гаспар Ноэ
В ролях: Моника Беллуччи, Венсан Кассель, Альбер Дюпонтель, Филипп Наон, Джо Престиа

Описание: После того как на молодую женщину зверски нападают в переходе, ее бойфренды — нынешний и бывший — не в силах сдержать гнев, отправляются собственноручно восстановить справедливость.

image

Выпущено: Франция / 120 Films, Eskwad, Les Cinemas de la Zone, Nord-Ouest Productions, Studio Canal
Продолжительность: 01:26:01
Перевод: Двухголосый профессиональный | CP Digital

Файл
Формат: MKV
Качество: BDRip 1080p
Видео: H.264, 1920x804, 25fps, 12,8 Мb/s
Аудио 1: 48KHz, AC3, 6 ch, 448 Kb/s | Русский
Аудио 2: 48KHz, DTS, 6 ch, 1509 Kb/s | Французский
Субтитры: Французские

MediaInfo
Формат : Matroska
Версия формата : Version 4
Размер файла : 8,86 Гбайт
Продолжительность : 1 ч. 26 м.
Общий поток : 14,7 Мбит/сек
Название фильма : Irréversible_Inversion Intégrale.2020.BDRip.1080p.W
Дата кодирования : UTC 2022-01-14 16:01:41
Программа кодирования : mkvmerge v23.0.0 ('The Bride Said No') 64-bit
Библиотека кодирования : libebml v1.3.6 + libmatroska v1.4.9

Видео
Идентификатор : 1
Формат : AVC
Формат/Информация : Advanced Video Codec
Профиль формата : [email protected]
Настройки формата : CABAC / 5 Ref Frames
Параметр CABAC формата : Да
Параметр RefFrames формата : 5 кадров
Идентификатор кодека : V_MPEG4/ISO/AVC
Продолжительность : 1 ч. 26 м.
Битрейт : 12,8 Мбит/сек
Ширина : 1 920 пикселей
Высота : 804 пикселя
Соотношение сторон : 2,40:1
Режим частоты кадров : Постоянный
Частота кадров : 25,000 кадров/сек
Цветовое пространство : YUV
Субдискретизация насыщенности : 4:2:0
Битовая глубина : 8 бит
Тип развёртки : Прогрессивная
Бит/(Пиксели*Кадры) : 0.331
Размер потока : 7,68 Гбайт (87%)
Заголовок : rip by -=walledol=-
Библиотека кодирования : x264 core 161 r3048 b86ae3c
Настройки программы : cabac=1 / ref=5 / deblock=1:-3:-3 / analyse=0x3:0x133 / me=umh / subme=11 / psy=1 / psy_rd=1.05:0.10 / mixed_ref=1 / me_range=32 / chroma_me=1 / trellis=2 / 8x8dct=1 / cqm=0 / deadzone=21,11 / fast_pskip=0 / chroma_qp_offset=-3 / threads=12 / lookahead_threads=3 / sliced_threads=0 / nr=0 / decimate=0 / interlaced=0 / bluray_compat=0 / constrained_intra=0 / bframes=10 / b_pyramid=2 / b_adapt=2 / b_bias=0 / direct=3 / weightb=1 / open_gop=0 / weightp=2 / keyint=250 / keyint_min=25 / scenecut=40 / intra_refresh=0 / rc_lookahead=60 / rc=2pass / mbtree=0 / bitrate=12790 / ratetol=1.0 / qcomp=0.60 / qpmin=0 / qpmax=69 / qpstep=4 / cplxblur=20.0 / qblur=0.5 / vbv_maxrate=30000 / vbv_bufsize=33000 / nal_hrd=none / filler=0 / ip_ratio=1.40 / pb_ratio=1.30 / aq=3:0.80
Язык : French
Default : Да
Forced : Нет

Аудио #1
Идентификатор : 2
Формат : AC-3
Формат/Информация : Audio Coding 3
Коммерческое название : Dolby Digital
Идентификатор кодека : A_AC3
Продолжительность : 1 ч. 26 м.
Вид битрейта : Постоянный
Битрейт : 448 Кбит/сек
Каналы : 6 каналов
Channel layout : L R C LFE Ls Rs
Частота : 48,0 КГц
Частота кадров : 31,250 кадров/сек (1536 SPF)
Метод сжатия : С потерями
Размер потока : 276 Мбайт (3%)
Заголовок : DVO_CP Digital
Язык : Russian
Service kind : Complete Main
Default : Да
Forced : Нет

Аудио #2
Идентификатор : 3
Формат : DTS
Формат/Информация : Digital Theater Systems
Идентификатор кодека : A_DTS
Продолжительность : 1 ч. 26 м.
Вид битрейта : Постоянный
Битрейт : 1 509 Кбит/сек
Каналы : 6 каналов
Channel layout : C L R Ls Rs LFE
Частота : 48,0 КГц
Частота кадров : 93,750 кадра/сек (512 SPF)
Битовая глубина : 24 бит
Метод сжатия : С потерями
Размер потока : 928 Мбайт (10%)
Язык : French
Default : Нет
Forced : Нет

Текст
Идентификатор : 4
Формат : UTF-8
Идентификатор кодека : S_TEXT/UTF8
Идентификатор кодека/Информация : UTF-8 Plain Text
Продолжительность : 1 ч. 25 м.
Битрейт : 72 бит/сек
Count of elements : 1598
Размер потока : 45,4 Кбайт (0%)
Язык : French
Default : Нет
Forced : Нет

Меню
00:00:00.000 : en:Chapter 1
00:04:13.000 : en:Chapter 2
00:17:59.400 : en:Chapter 3
00:26:45.000 : en:Chapter 4
00:39:08.000 : en:Chapter 5
00:52:12.000 : en:Chapter 6
00:58:42.480 : en:Chapter 7
01:03:09.000 : en:Chapter 8
01:05:49.000 : en:Chapter 9
01:08:18.800 : en:Chapter 10
01:17:53.000 : en:Chapter 11
01:24:32.520 : en:Chapter 12
РаздающийПоследний раз был здесь 1 неделю 2 дня 17 часов 36 минут 29 секунд  назад
Размер8.86 GB (9,508,812,912 байт)
Добавлен15 января 2022 в 03:12:05
Проголосуй за трекер

<< Предыдущий релиз  [из этой категории]   |   [из этой категории]  Следующий релиз >>
Все релизы   |   Все релизы этой категории
:: Список комментариев http://bigfangroup.org
Комментариев нет. Желаете добавить?


Обратная связь: [email protected]
© 2022 BigFANGroup 4.1. Powered by Kinokpk.com releaser 2.70 © 2008-2022.
Торрент трекер, форум трекера, скачать бесплатно фильмы, игры, видео, картинки и многое другое.